watchmen etmovies yts rq.mp4 wwe vikings zombieland double tap 2019 Rick and Morty s04e04 silicon valley ethd ad astra The Flash s00e05 Seal Team evo Batwoman s00e01 Arrow  stumptown s01e09 once upon a time in hollywood 2019 joker 2019 south park  queen slim 2019 The Flash s06e09 hustlers 2019 jumanji the next level 2019 His dark materials castle rock tyler perrys the oval s01e08 hindi Supergirl s05e09 21 bridges 2019 The Mandalorian s01e05 swat s03e10 proper doctor sleep 2019 XXX south park s23e10 the irishman 2019 ettv nancy drew terminator dark fate 2019 frozen ii 2019 treadstone modern family s11e09 modern family the mandalorian survivor seal team s03e10 see rick and morty frozen 2 angel has fallen 2019 etrg crisis on infinite earths gemini man 2019 Batwoman vikings s06e03 the flash ford v ferrari 2019 mr robot ddr joker ad astra 2019 mandalorian flash Stumptown The Flash s00e05 720p Batwoman s01e09 supergirl ncis rambo last blood 2019 knives out 2019 
Warning! Use a V.P.N When Downloading Torrents!
Your IP Address is 100.26.176.182. Location is United States
Your Internet Provider is tracking your torrent activity! Hide your IP ADDRESS with a V.P.N!
We strongly recommend using ExpressV.P.N to anonymize your torrenting. 30 Day Money Back Guarantee!
Try it Now!
ETTV Recommended TV Shows
Evil.S01E10.HDTV.x264-KILLERS[ettv] torrent
Legacies.S02E08.HDTV.x264-SVA[ettv] torrent
Marvels.Runaways.S03E01.WEB.h264-TBS[ettv] torrent
The.Mandalorian.S01E06.WEB.x264-PHOENiX[eztv].mkv torrent
WWE NXT UK 2019 12 12 720p Hi WEB h264-HEEL [TJET] torrent
WWE Main Event 2019 12 12 1080p WEBRip h264-HEEL [TJET] torrent

ETTV Recommended SD
Mob.Town.2019.HDRip.XviD.AC3-EVO torrent
Hell.On.The.Border.2019.HDRip.XviD.AC3-EVO torrent
After.She.Wakes.2019.HDRip.XviD.AC3-EVO torrent
6.Underground.2019.HDRip.XviD.AC3-EVO[EtMovies] torrent

ETTV Recommended HD
Code.8.2019..720p.WEB-DL.x264.AAC-ETRG torrent
Body.Keepers.2018.1080p.BluRay.x264-UNVEiL[EtHD] torrent
Mob.Town.2019.720p.WEB-DL.x264.AAC-ETRG torrent
6.Underground.2019.1080p.NF.WEB-DL.DDP5.1.x264-KamiKaze[EtHD] torrent

ETTV Recommended UHD
Pirates of the Caribbean - The Curse of the Black Pearl 2003.MULTi.UHD.2160p.HDR.WEBRip.DTS-HD MA 5.1.HEVC-DDR torrent
The Report 2019.UHD.2160p.HDR.WEBRip.DDP.5.1.HEVC-DDR torrent
The Muppet Christmas Carol 1992.UHD.2160p.HDR.WEBRip.DTS-HDMA.5.1.HEVC-DDR torrent
War 2019.MULTi.UHD.4K.SDR.TrueHD.7.1.HEVC-DDR torrent

ETTV Recommended Cam
Dark Waters 2019 HDCAM x264-ETRG torrent
Blue Story 2019 HDCAM x264 AC3-ETRG torrent
Jay and Silent Bob Reboot 2019 HDCAM x264-ETRG torrent
Jumanji.The.Next.Level.2019.NEW.HDCAM.x264.AC3-ETRG torrent

ETTV Recommended Foreign
The Pineville Heist (2016) 720p WEBRip x264 [Dual Audio] [Hindi 2.0 - English 2.0] Exclusive By -=!Dr.STAR!=- torrent
War 2019.HQ.MULTi.Bluray.1080p.Atmos.7.1.x264-DDR torrent
Band Vaaje 2019 x264 720p HD Punjabi GOPISAHI torrent
Bigil.2019.720p.WEBRip.x264.DDP 5.1.ESubs.Madhu torrent


Download Torrent "Scarface.1983.MULTi.UHD.Blu-ray.2160p.HDR.DTS-X.7.1.HEVC-DDR"

IMDB Details
Description:

In 1980 Miami, a determined Cuban immigrant takes over a drug cartel and succumbs to greed.

Genre:

Crime, Drama

Download Torrent (Magnet)
Download Torrent (File)
Seeds: 312
Leechers: 733
Completed: 1,534 
Last Checked: 13-10-2019 17:01:32


Loading...
Details
Title:Scarface.1983.MULTi.UHD.Blu-ray.2160p.HDR.DTS-X.7.1.HEVC-DDR
Description:




SPECS

Source : UHD Blu-ray

Format                                   : Matroska
File size                                : 27.5 GiB
Duration                                 : 2 h 49 min
Overall bit rate mode                    : Variable
Overall bit rate                         : 23.2 Mb/s

Video
Format                                   : HEVC/HDR
Bit rate                                 : 15.8 Mb/s
Width                                    : 3 840 pixels
Height                                   : 1 632 pixels
Bit depth                                : 10 bits
Color primaries                          : BT.2020
Transfer characteristics                 : PQ
Matrix coefficients                      : BT.2020 non-constant
Mastering display color primaries        : Display P3
Mastering display luminance              : min: 0.0050 cd/m2, max: 1000 cd/m2
Maximum Content Light Level              : 1000 cd/m2
Maximum Frame-Average Light Level        : 155 cd/m2


Audio

Audio #1
ID                                       : 2
Format                                   : DTS XLL X
Format/Info                              : Digital Theater Systems
Commercial name                          : DTS-HD Master Audio
Codec ID                                 : A_DTS
Duration                                 : 2 h 49 min
Bit rate mode                            : Variable
Bit rate                                 : 5 793 kb/s
Channel(s)                               : 8 channels
Channel(s)_Original                      : Object Based
Channel layout                           : Object Based
Sampling rate                            : 48.0 kHz
Frame rate                               : 93.750 FPS (512 SPF)
Bit depth                                : 24 bits
Stream size                              : 6.87 GiB (25%)
Language                                 : English
Default                                  : Yes
Forced                                   : No

Audio #2
ID                                       : 3
Format                                   : DTS
Format/Info                              : Digital Theater Systems
Codec ID                                 : A_DTS
Duration                                 : 2 h 49 min
Bit rate mode                            : Constant
Bit rate                                 : 768 kb/s
Channel(s)                               : 2 channels
Channel layout                           : L R
Sampling rate                            : 48.0 kHz
Frame rate                               : 93.750 FPS (512 SPF)
Bit depth                                : 24 bits
Compression mode                         : Lossy
Stream size                              : 933 MiB (3%)
Language                                 : Spanish
Default                                  : No
Forced                                   : No

Audio #3
ID                                       : 4
Format                                   : DTS
Format/Info                              : Digital Theater Systems
Codec ID                                 : A_DTS
Duration                                 : 2 h 49 min
Bit rate mode                            : Constant
Bit rate                                 : 768 kb/s
Channel(s)                               : 2 channels
Channel layout                           : L R
Sampling rate                            : 48.0 kHz
Frame rate                               : 93.750 FPS (512 SPF)
Bit depth                                : 24 bits
Compression mode                         : Lossy
Stream size                              : 933 MiB (3%)
Language                                 : French




Subs:
En Fr Sp



[email protected]
Category:Movies > UltraHD/4K
Lang:English  English
Total Size:27.49 GB
Info Hash:c74d6e3cdc2be91f6999131024a99e0002328ac5
Added By:DDR
Date Added:13-10-2019 17:01:28

  

Files

File List: 
 File Size
0A DDR Release !!!.txt287.00 B
0Torrent downloaded from Desitorrents.tv.txt28.00 B
Scarface.1983.MULTi.UHD.Blu-ray.2160p.HDR.DTS-X.7.1.HEVC-DDR.mkv27.49 GB



Loading...
Comments

<< Previous      Next >>
1 - 1

[Report] Posted: 15-10-2019 at 09:21:15
evenrios


Thank you DDR, MikeKhan

1 - 1
<< Previous      Next >>