good boys 2019 it chapter two 2019 nancy drew silicon valley Hindi terminator dark fate 2019 ethd american horror story S09E09 ncis see xxx Chicago PD his Dark Materials swat s03e07 Treadstone angel has fallen zombieland double tap 2019 Lady and the tramp Supergirl treadstone s01e05 Chicago Fire the mandalorian joker 2019 the irishman 2019 The morning show survivor titans south park s23e07 fast furious presents hobbs shaw 2019 the mandalorian s01e01 ford v ferrari 2019 black and blue 2019 chicago pd s07e08 evo mandalorian aew once upon a time in hollywood 2019 South Park hustlers 2019 harriet 2019 maleficent mistress of evil 2019 Joker Seal Team always sunny watchmen gemini man 2019 angel has fallen 2019 ddr Chicago Med chicago med s05e08 etrg once upon a time in hollywood yts rambo last blood 2019 marvel week etmovies midway 2019 survivor s39e08 Chicago Fire s08e08 The Flash ncis s17e07 arrow 0 wwe Rick and Morty the lion king 2019 american horror story THIS IS US limetown the walking dead ettv fbi s02e07 
Warning! Use a V.P.N When Downloading Torrents!
Your IP Address is 35.175.180.108. Location is United States
Your Internet Provider is tracking your torrent activity! Hide your IP ADDRESS with a V.P.N!
We strongly recommend using ExpressV.P.N to anonymize your torrenting. 30 Day Money Back Guarantee!
Try it Now!
ETTV Recommended TV Shows
Young.Sheldon.S03E07.HDTV.x264-SVA[ettv] torrent
The.Good.Place.S04E08.HDTV.x264-SVA[ettv] torrent
Greys.Anatomy.S16E08.HDTV.x264-SVA[ettv] torrent
Supernatural.S15E05.WEB.H264-TBS[ettv] torrent

ETTV Recommended SD
The.Driver.2019.DVDRip.XviD.AC3-EVO[EtMovies] torrent
A Bluebird in My Heart.2019.HDRip.XviD.AC3-EVO torrent
Angel.Has.Fallen.2019.BDRip.XviD.AC3-EVO[EtMovies] torrent
Gemini Man.2019.HC.HDRip.XviD.AC3-EVO[EtMovies] torrent

ETTV Recommended HD
Burn 2019.MULTi.Bluray.1080p.Truehd.5.1.HEVC-DDR[EtHD] torrent
Angel.Has.Fallen.2019.MULTi.1080p.Bluray.Atmos.7.1.HEVC-DDR[EtHD] torrent
The.Current.War.2017.1080p.BluRay.X264-AMIABLE[EtHD] torrent
Gemini Man.2019.HC.1080p.HDRip.X264.AC3-EVO[EtHD] torrent

ETTV Recommended UHD
Universal Soldier 1992.MULTi.UHD.Blu-ray.2160p.HDR.DTS-HDMA.5.1.HEVC-DDR torrent
Apollo 11 2019.UHD.Blu-ray.2160p.HDR.DTS-HDMA.5.1.HEVC-DDR torrent
Wonder.Woman.Bloodlines.2019.4K.HDR.2160p.BDRip Sub Ita x265-NAHOM torrent
The Angry Birds Movie-2 2019.MULTi.UHD.Bluray.2160p.HDR.DTS-X.7.1.HEVC-DDR torrent

ETTV Recommended Cam
Terminator Dark Fate 2019 NEW HDTS x264-ETRG torrent
Midway 2019 HDCAM.x264.AC3-ETRG torrent
Playing with Fire 2019 720p HDCAM-GETB8 torrent
The Good Liar 2019 HDCAM x264 AC3-ETRG torrent

ETTV Recommended Foreign
Bodies.at.Rest.2019.MULTi.CHN.Blu-ray.1080p.DTS-HDMA.5.1.HEVC-DDR[EtHD] torrent
So.duk.2.Tin.dei.duei.kuet.2019.1080p.UHD.BluRay.DD-EX5.1.HDR.x265-playHD[EtHD] torrent
Girlfriend.2018.Bengali.1080p.WEB-DL.x264.AAC -DDR[EtHD] torrent
The Past.2018.Hindi.1080p.WEB-DL.x264.AAC -DDR[EtHD] torrent


Download Torrent "Hellboy 2004.MULTi.UHD.Blu-ray.2160p.HDR.Atmos.7.1.HEVC-DDR"

IMDB Details
Description:

A demon, raised from infancy after being conjured by and rescued from the Nazis, grows up to become a defender against the forces of darkness.

Genre:

Action, Adventure, Fantasy, Horror, Sci-Fi

Download Torrent (Magnet)
Download Torrent (File)
Seeds: 205
Leechers: 367
Completed: 1,194 
Last Checked: 13-10-2019 17:01:40


Loading...
Details
Title:Hellboy 2004.MULTi.UHD.Blu-ray.2160p.HDR.Atmos.7.1.HEVC-DDR
Description:




SPECS

Source : UHD Blu-ray

Format                                   : Matroska
File size                                : 19.6 GiB
Duration                                 : 2 h 12 min
Overall bit rate mode                    : Variable
Overall bit rate                         : 21.2 Mb/s

Video
Format                                   : HEVC/HDR
Bit rate                                 : 15.6 Mb/s
Width                                    : 3 840 pixels
Height                                   : 2 072 pixels
Bit depth                                : 10 bits
Color primaries                          : BT.2020
Transfer characteristics                 : PQ
Matrix coefficients                      : BT.2020 non-constant
Mastering display color primaries        : Display P3
Mastering display luminance              : min: 0.0050 cd/m2, max: 4000 cd/m2
Maximum Content Light Level              : 9121 cd/m2
Maximum Frame-Average Light Level        : 1265 cd/m2


Audio
Audio #1
ID                                       : 2
Format                                   : MLP FBA 16-ch
Format/Info                              : Meridian Lossless Packing FBA with 16-channel presentation
Commercial name                          : Dolby TrueHD with Dolby Atmos
Codec ID                                 : A_TRUEHD
Duration                                 : 2 h 12 min
Bit rate mode                            : Variable
Bit rate                                 : 3 176 kb/s
Maximum bit rate                         : 3 708 kb/s
Channel(s)                               : 8 channels
Channel layout                           : L R C LFE Ls Rs Lb Rb
Sampling rate                            : 48.0 kHz
Frame rate                               : 1 200.000 FPS (40 SPF)
Compression mode                         : Lossless
Delay relative to video                  : 8 ms
Stream size                              : 2.94 GiB (15%)
Language                                 : English
Default                                  : Yes
Forced                                   : No
Number of dynamic objects                : 11
Bed channel count                        : 1 channel
Bed channel configuration                : LFE

Audio #2
ID                                       : 3
Format                                   : AC-3
Format/Info                              : Audio Coding 3
Commercial name                          : Dolby Digital
Codec ID                                 : A_AC3
Duration                                 : 2 h 12 min
Bit rate mode                            : Constant
Bit rate                                 : 640 kb/s
Channel(s)                               : 6 channels
Channel layout                           : L R C LFE Ls Rs
Sampling rate                            : 48.0 kHz
Frame rate                               : 31.250 FPS (1536 SPF)
Bit depth                                : 16 bits
Compression mode                         : Lossy
Delay relative to video                  : 8 ms
Stream size                              : 606 MiB (3%)
Language                                 : English
Service kind                             : Complete Main
Default                                  : No
Forced                                   : No

Audio #3
ID                                       : 4
Format                                   : AC-3
Format/Info                              : Audio Coding 3
Commercial name                          : Dolby Digital
Codec ID                                 : A_AC3
Duration                                 : 2 h 7 min
Bit rate mode                            : Constant
Bit rate                                 : 448 kb/s
Channel(s)                               : 6 channels
Channel layout                           : L R C LFE Ls Rs
Sampling rate                            : 48.0 kHz
Frame rate                               : 31.250 FPS (1536 SPF)
Bit depth                                : 16 bits
Compression mode                         : Lossy
Delay relative to video                  : 32 ms
Stream size                              : 410 MiB (2%)
Language                                 : Czech
Service kind                             : Complete Main
Default                                  : No
Forced                                   : No

Audio #4
ID                                       : 5
Format                                   : AC-3
Format/Info                              : Audio Coding 3
Commercial name                          : Dolby Digital
Codec ID                                 : A_AC3
Duration                                 : 2 h 12 min
Bit rate mode                            : Constant
Bit rate                                 : 448 kb/s
Channel(s)                               : 6 channels
Channel layout                           : L R C LFE Ls Rs
Sampling rate                            : 48.0 kHz
Frame rate                               : 31.250 FPS (1536 SPF)
Bit depth                                : 16 bits
Compression mode                         : Lossy
Delay relative to video                  : 32 ms
Stream size                              : 425 MiB (2%)
Language                                 : German
Service kind                             : Complete Main
Default                                  : No
Forced                                   : No

Audio #5
ID                                       : 6
Format                                   : AC-3
Format/Info                              : Audio Coding 3
Commercial name                          : Dolby Digital
Codec ID                                 : A_AC3
Duration                                 : 2 h 12 min
Bit rate mode                            : Constant
Bit rate                                 : 448 kb/s
Channel(s)                               : 6 channels
Channel layout                           : L R C LFE Ls Rs
Sampling rate                            : 48.0 kHz
Frame rate                               : 31.250 FPS (1536 SPF)
Bit depth                                : 16 bits
Compression mode                         : Lossy
Delay relative to video                  : 32 ms
Stream size                              : 425 MiB (2%)
Language                                 : Thai




Subs:
En Sp ara bul thai cze chi dan est fin ger gre heb hun kor ice latv
nor lith pol por rom ru slo swe tur 



[email protected]
Category:Movies > UltraHD/4K
Lang:English  English
Total Size:19.61 GB
Info Hash:244c6c00a1b84f17a3add5fe00c58b989123dac1
Added By:DDR
Date Added:13-10-2019 17:01:37

  

Files

File List: 
 File Size
0A DDR Release !!!.txt287.00 B
0Torrent downloaded from Desitorrents.tv.txt28.00 B
Hellboy 2004.MULTi.UHD.Blu-ray.2160p.HDR.Atmos.7.1.HEVC-DDR.mkv19.61 GB



Loading...
Comments

<< Previous      Next >>
1 - 2

[Report] Posted: 15-10-2019 at 09:21:02
evenrios


Thank you DDR, MikeKhan

[Report] Posted: 16-10-2019 at 08:28:51
Mekkkk


Thx!

1 - 2
<< Previous      Next >>