good boys 2019 it chapter two 2019 nancy drew silicon valley Hindi terminator dark fate 2019 ethd american horror story S09E09 ncis see xxx Chicago PD his Dark Materials swat s03e07 Treadstone angel has fallen zombieland double tap 2019 Lady and the tramp Supergirl treadstone s01e05 Chicago Fire the mandalorian joker 2019 the irishman 2019 The morning show survivor titans south park s23e07 fast furious presents hobbs shaw 2019 the mandalorian s01e01 ford v ferrari 2019 black and blue 2019 chicago pd s07e08 evo mandalorian aew once upon a time in hollywood 2019 South Park hustlers 2019 harriet 2019 maleficent mistress of evil 2019 Joker Seal Team always sunny watchmen gemini man 2019 angel has fallen 2019 ddr Chicago Med chicago med s05e08 etrg once upon a time in hollywood yts rambo last blood 2019 marvel week etmovies midway 2019 survivor s39e08 Chicago Fire s08e08 The Flash ncis s17e07 arrow 0 wwe Rick and Morty the lion king 2019 american horror story THIS IS US limetown the walking dead ettv fbi s02e07 
Warning! Use a V.P.N When Downloading Torrents!
Your IP Address is 35.175.180.108. Location is United States
Your Internet Provider is tracking your torrent activity! Hide your IP ADDRESS with a V.P.N!
We strongly recommend using ExpressV.P.N to anonymize your torrenting. 30 Day Money Back Guarantee!
Try it Now!
ETTV Recommended TV Shows
Young.Sheldon.S03E07.HDTV.x264-SVA[ettv] torrent
The.Good.Place.S04E08.HDTV.x264-SVA[ettv] torrent
Greys.Anatomy.S16E08.HDTV.x264-SVA[ettv] torrent
Supernatural.S15E05.WEB.H264-TBS[ettv] torrent

ETTV Recommended SD
The.Driver.2019.DVDRip.XviD.AC3-EVO[EtMovies] torrent
A Bluebird in My Heart.2019.HDRip.XviD.AC3-EVO torrent
Angel.Has.Fallen.2019.BDRip.XviD.AC3-EVO[EtMovies] torrent
Gemini Man.2019.HC.HDRip.XviD.AC3-EVO[EtMovies] torrent

ETTV Recommended HD
Burn 2019.MULTi.Bluray.1080p.Truehd.5.1.HEVC-DDR[EtHD] torrent
Angel.Has.Fallen.2019.MULTi.1080p.Bluray.Atmos.7.1.HEVC-DDR[EtHD] torrent
The.Current.War.2017.1080p.BluRay.X264-AMIABLE[EtHD] torrent
Gemini Man 2019.BLURRED.720p.HDRIP.X264-FrangoAssado[EtHD] torrent

ETTV Recommended UHD
Universal Soldier 1992.MULTi.UHD.Blu-ray.2160p.HDR.DTS-HDMA.5.1.HEVC-DDR torrent
Apollo 11 2019.UHD.Blu-ray.2160p.HDR.DTS-HDMA.5.1.HEVC-DDR torrent
Wonder.Woman.Bloodlines.2019.4K.HDR.2160p.BDRip Sub Ita x265-NAHOM torrent
The Angry Birds Movie-2 2019.MULTi.UHD.Bluray.2160p.HDR.DTS-X.7.1.HEVC-DDR torrent

ETTV Recommended Cam
Terminator Dark Fate 2019 NEW HDTS x264-ETRG torrent
Midway 2019 HDCAM.x264.AC3-ETRG torrent
Playing with Fire 2019 720p HDCAM-GETB8 torrent
The Good Liar 2019 HDCAM x264 AC3-ETRG torrent

ETTV Recommended Foreign
Bodies.at.Rest.2019.MULTi.CHN.Blu-ray.1080p.DTS-HDMA.5.1.HEVC-DDR[EtHD] torrent
So.duk.2.Tin.dei.duei.kuet.2019.1080p.UHD.BluRay.DD-EX5.1.HDR.x265-playHD[EtHD] torrent
Girlfriend.2018.Bengali.1080p.WEB-DL.x264.AAC -DDR[EtHD] torrent
The Past.2018.Hindi.1080p.WEB-DL.x264.AAC -DDR[EtHD] torrent


Download Torrent "The.Death.and.Return.of.Superman.2019.MULTi.UHD.Blu-ray.2160p.HDR.DTS-HDMA...."

IMDB Details
Description:

The Death of Superman (2018) and Reign of the Supermen (2019) now presented as an over two-hour unabridged and seamless animated feature.

Genre:

Animation, Action, Sci-Fi

Download Torrent (Magnet)
Download Torrent (File)
Seeds: 241
Leechers: 291
Completed: 536 
Last Checked: 13-10-2019 17:02:49


Loading...
Details
Title:The.Death.and.Return.of.Superman.2019.MULTi.UHD.Blu-ray.2160p.HDR.DTS-HDMA....
Description:




SPECS

Source : UHD Blu-ray

Format                                   : Matroska
File size                                : 15.3 GiB
Duration                                 : 2 h 46 min
Overall bit rate mode                    : Variable
Overall bit rate                         : 13.2 Mb/s

Video
Format                                   : HEVC/HDR
Bit rate                                 : 9 494 kb/s
Width                                    : 3 840 pixels
Height                                   : 2 160 pixels
Bit depth                                : 10 bits
Color primaries                          : BT.2020
Transfer characteristics                 : PQ
Matrix coefficients                      : BT.2020 non-constant
Mastering display color primaries        : Display P3
Mastering display luminance              : min: 0.0050 cd/m2, max: 4000 cd/m2
Maximum Content Light Level              : 999 cd/m2
Maximum Frame-Average Light Level        : 402 cd/m2


Audio
Audio #1
ID                                       : 2
Format                                   : DTS XLL
Format/Info                              : Digital Theater Systems
Commercial name                          : DTS-HD Master Audio
Codec ID                                 : A_DTS
Duration                                 : 2 h 46 min
Bit rate mode                            : Variable
Bit rate                                 : 2 364 kb/s
Channel(s)                               : 6 channels
Channel layout                           : C L R Ls Rs LFE
Sampling rate                            : 48.0 kHz
Frame rate                               : 93.750 FPS (512 SPF)
Bit depth                                : 24 bits
Compression mode                         : Lossless
Stream size                              : 2.75 GiB (18%)
Language                                 : English
Default                                  : Yes
Forced                                   : No

Audio #2
ID                                       : 3
Format                                   : AC-3
Format/Info                              : Audio Coding 3
Commercial name                          : Dolby Digital
Codec ID                                 : A_AC3
Duration                                 : 2 h 46 min
Bit rate mode                            : Constant
Bit rate                                 : 640 kb/s
Channel(s)                               : 6 channels
Channel layout                           : L R C LFE Ls Rs
Sampling rate                            : 48.0 kHz
Frame rate                               : 31.250 FPS (1536 SPF)
Bit depth                                : 16 bits
Compression mode                         : Lossy
Stream size                              : 762 MiB (5%)
Language                                 : French
Service kind                             : Complete Main
Default                                  : No
Forced                                   : No

Audio #3
ID                                       : 4
Format                                   : AC-3
Format/Info                              : Audio Coding 3
Commercial name                          : Dolby Digital
Codec ID                                 : A_AC3
Duration                                 : 2 h 46 min
Bit rate mode                            : Constant
Bit rate                                 : 640 kb/s
Channel(s)                               : 6 channels
Channel layout                           : L R C LFE Ls Rs
Sampling rate                            : 48.0 kHz
Frame rate                               : 31.250 FPS (1536 SPF)
Bit depth                                : 16 bits
Compression mode                         : Lossy
Stream size                              : 762 MiB (5%)
Language                                 : Spanish


Subs:
En Fr Sp



[email protected]
Category:Movies > UltraHD/4K
Lang:English  English
Total Size:15.31 GB
Info Hash:d153e0091a623c842cca9484e8fd119ecd832571
Added By:DDR
Date Added:13-10-2019 17:02:46

  

Files

File List: 
 File Size
0A DDR Release !!!.txt287.00 B
0Torrent downloaded from Desitorrents.tv.txt28.00 B
The.Death.and.Return.of.Superman.2019.MULTi.UHD.Blu-ray.2160p.HDR.DTS-HDMA.5.1.HEVC-DDR.mkv15.31 GB



Loading...
Comments

There are currently no comments. Be the first one to write something !