swat s03e08 south park 0 the mandalorian s01e01 charlies angels 2019 gemini man 2019 aew seal team s03e07 ford v ferrari 2019 DC Week marvel week zombieland double tap 2019 ethd Chicago Fire Supergirl watchmen riverdale maleficent mistress of evil 2019 Chicago Med seal team WWE joker 2019 Dream girl  ncis s17e08 Chicago PD s07e09 READY OR NOT Joker frozen ii 2019 always sunny His Dark Materials angel has fallen 2019 The flash evo hindi The Mandalorian s01e02 titans riverdale s04e07 xxx the flash s06e06 stumptown Mandalorian Arrow once upon a time in hollywood 2019 ncis Chicago Fire s08e09 the irishman 2019 SURVIVOR yts etmovies The Mandalorian Silicon Valley stumptown s01e07 Conan the walking dead modern family s11e07 treadstone s01e06 ettv fast furious presents hobbs shaw 2019 rick and morty chicago med s05e09 Treadstone rambo last blood 2019 terminator dark fate 2019 see Once Upon A Time In Hollywood arrow s08e05 gemini man nancy drew ddr Chicago PD etrg Modern Family 
Warning! Use a V.P.N When Downloading Torrents!
Your IP Address is 35.173.234.140. Location is United States
Your Internet Provider is tracking your torrent activity! Hide your IP ADDRESS with a V.P.N!
We strongly recommend using ExpressV.P.N to anonymize your torrenting. 30 Day Money Back Guarantee!
Try it Now!
ETTV Recommended TV Shows
Evil.S01E08.HDTV.x264-SVA[ettv] torrent
See (2019) S01E06 Silk (1080p ATVP Webrip x265 10bit EAC3 5.1 - Goki).mkv torrent
The.Mandalorian.S01E03.1080p.WEB.H264-PETRiFiED[EtHD] torrent
Titans.S02E12.WEBRip.x264-ION10 torrent

ETTV Recommended SD
Ready.or.Not.2019.BDRip.XviD.AC3-EVO torrent
Rambo.Last.Blood.2019.HC.HDRip.XViD-ETRG torrent
Overcomer.2019.HDRip.XviD.AC3-EVO[EtMovies] torrent
The.Courier.2019.HDRip.XViD-ETRG torrent

ETTV Recommended HD
Ready.or.Not.2019.1080p.Bluray.DTS-HD.MA.5.1.X264-EVO[EtHD] torrent
Rambo.Last.Blood.2019.HC.1080p.HDRip.X264.AC3-EVO[EtHD] torrent
Once.Upon.a.Time.in.Hollywood.2019.1080p.WEB-DL.DD5.1.H264-CMRG[EtHD] torrent
Daddys.Home.2015.BDRip.1080p.x264.Multilang.DTS.DD5.1.Gerald torrent

ETTV Recommended UHD
Three.Billboards.Outside.Ebbing.Missouri.2017.MULTi.UHD.Blu-ray.2160p.HDR.DTS-HDMA.5.1.HEVC-DDR torrent
Angel.Has.Fallen.2019.MULTi.UHD.BluRay.2160p.HDR.Atmos.7.1.HEVC-DDR torrent
Midsommar.2019.MULTi.UHD.Bluray.2160p.HDR.DTS-HDMA.5.1.HEVC-DDR torrent
Independence Day.1996.EXTENDED.4K.HDR.2160p.BDRip Ita Eng x265-NAHOM torrent

ETTV Recommended Cam
Ford v Ferrari 2019 NEW HDCAM X264-ETRG torrent
Charlies Angels 2019 NEW HD-TS  x264-ETRG torrent
Frozen 2 2019 720p HDCAM-GETB8 torrent
21 Bridges 2019 720p HDCAM-GETB8 torrent

ETTV Recommended Foreign
Keshava (2017) 720p UNCUT HDRip x264 [Dual Audio] [Hindi DD 2.0 - Telugu 2.0] Exclusive By -=!Dr.STAR!=- torrent
The.Climbers.2019.HC.HDRip.XviD.AC3-EVO[EtMovies] torrent
Fredrick.2016.Hindi.1080p.WEB-DL.x264.AAC -DDR[EtHD] torrent
Pagalpanti (2019) Hindi 720p PreDVD Rip x264 AAC 1.2GB CineVood Exclusive torrent


Download Torrent "The Lion King (2019) (2160p BluRay x265 HEVC 10bit AAC 7.1 Joy) [UTR]"

IMDB Details
Description:

After the murder of his father, a young lion prince flees his kingdom only to learn the true meaning of responsibility and bravery.

Genre:

Animation, Adventure, Drama, Family, Musical

Download Torrent (Magnet)
Download Torrent (File)
Seeds: 977
Leechers: 523
Completed: 8,242 
Last Checked: 13-10-2019 18:35:49


Loading...
Details
Title:The Lion King (2019) (2160p BluRay x265 HEVC 10bit AAC 7.1 Joy) [UTR]
Description:




Media Information
General
Format                                   : Matroska
Format version                           : Version 4 / Version 2
File size                                : 5.44 GiB
Duration                                 : 3 h 0 min
Overall bit rate                         : 4 326 kb/s
Movie name                               : The Lion King 2019  (2160p x265 10bit FS88 Joy) [UTR]
Encoded date                             : UTC 2019-10-13 16:44:33
Writing application                      : mkvmerge v32.0.0 ('Astral Progressions') 64-bit
Writing library                          : libebml v1.3.7 + libmatroska v1.5.0
Cover                                    : Yes
Attachments                              : cover.jpg
Writing frontend                         : StaxRip v2.0.2.0, Encoded by JoyBell

Video
ID                                       : 1
Format                                   : HEVC
Format/Info                              : High Efficiency Video Coding
Format profile                           : Main [email protected]@Main
Codec ID                                 : V_MPEGH/ISO/HEVC
Duration                                 : 1 h 58 min
Bit rate                                 : 6 000 kb/s
Width                                    : 3 840 pixels
Height                                   : 2 160 pixels
Display aspect ratio                     : 16:9
Frame rate mode                          : Constant
Frame rate                               : 23.976 (24000/1001) FPS
Color space                              : YUV
Chroma subsampling                       : 4:2:0
Bit depth                                : 10 bits
Bits/(Pixel*Frame)                       : 0.030
Stream size                              : 4.96 GiB (91%)
Writing library                          : x265 3.0_Au+24-4217e691387c:[Windows][GCC 9.1.1][64 bit] 10bit
Encoding settings                        : rc=abr / bitrate=6000 / qcomp=0.60 / qpstep=4 / stats-write=0 / stats-read=2 / cplxblur=20.0 / qblur=0.5 / qpmax=69 / qpmin=0 / no-lossless / no-cu-lossless / no-hevc-aq / no-aq-motion / aq-mode=3 / aq-strength=0.80 / cbqpoffs=0 / crqpoffs=0 / ipratio=1.40 / pbratio=1.30 / psy-rd=2.20 / psy-rdoq=1.15 / deblock=0:0 / ref=4 / limit-refs=3 / limit-modes / bframes=8 / b-adapt=2 / bframe-bias=20 / b-pyramid / no-b-intra / weightp / no-weightb / keyint=250 / min-keyint=23 / rc-lookahead=80 / gop-lookahead=0 / scenecut=40 / scenecut-bias=0.05 / ctu=64 / min-cu-size=8 / me=3 / subme=3 / merange=57 / rd=4 / no-rd-refine / ssim-rd / dynamic-rd=0.00 / rdoq-level=2 / rdpenalty=0 / cutree / sao / limit-sao / no-sao-non-deblock / no-rect / no-amp / open-gop / max-tu-size=32 / tu-inter-depth=1 / tu-intra-depth=1 / limit-tu=0 / qg-size=32 / wpp / no-pmode / no-pme / no-psnr / ssim / no-tskip / constrained-intra / strong-intra-smoothing / max-merge=3 / nr-intra=0 / nr-inter=0 / input-csp=1 / input-res=3840x2160 / interlace=0 / total-frames=170099 / level-idc=0 / high-tier=1cpuid=1111039 / frame-threads=3 / numa-pools=12 / log-level=2 / uhd-bd=0 / lookahead-slices=4 / radl=0 / no-splice / no-intra-refresh / signhide / temporal-mvp / no-analyze-src-pics / early-skip / rskip / no-fast-intra / no-tskip-fast / splitrd-skip / zone-count=0 / no-strict-cbr / no-rc-grain / no-const-vbv / no-allow-non-conformance / no-repeat-headers / annexb / no-aud / no-hrd / info / hash=0 / no-temporal-layers / sar=0 / overscan=0 / videoformat=5 / range=0 / colorprim=2 / transfer=2 / colormatrix=2 / chromaloc=0 / display-window=0 / max-cll=0,0 / min-luma=0 / max-luma=1023 / log2-max-poc-lsb=8 / vui-timing-info / vui-hrd-info / slices=1 / no-opt-qp-pps / no-opt-ref-list-length-pps / multi-pass-opt-rps / no-opt-cu-delta-qp / no-hdr / no-hdr-opt / no-dhdr10-opt / no-idr-recovery-sei / analysis-reuse-level=10 / scale-factor=0 / refine-intra=0 / refine-inter=0 / refine-mv=0 / refine-ctu-distortion=0 / ctu-info=0 / no-lowpass-dct / refine-analysis-type=0 / copy-pic=1 / max-ausize-factor=1.0 / no-dynamic-refine / no-single-sei / no-svt / qp-adaptation-range=1.00
Default                                  : Yes
Forced                                   : No

Audio
ID                                       : 2
Format                                   : AAC
Format/Info                              : Advanced Audio Codec
Format profile                           : LC
Codec ID                                 : A_AAC
Duration                                 : 1 h 58 min
Bit rate                                 : 529 kb/s
Channel(s)                               : 8 channels
Channel positions                        : Front: L C R, Side: L R, Back: L R, LFE
Sampling rate                            : 48.0 kHz
Frame rate                               : 46.875 FPS (1024 spf)
Compression mode                         : Lossy
Delay relative to video                  : 9 ms
Stream size                              : 454 MiB (8%)
Language                                 : English
Default                                  : No
Forced                                   : No

Subtitle #1
ID                                       : 3
Format                                   : PGS
Muxing mode                              : zlib
Codec ID                                 : S_HDMV/PGS
Codec ID/Info                            : Picture based subtitle format used on BDs/HD-DVDs
Duration                                 : 1 h 52 min
Bit rate                                 : 37.3 kb/s
Count of elements                        : 3420
Stream size                              : 29.8 MiB (1%)
Language                                 : English
Default                                  : No
Forced                                   : No

Subtitle #2
ID                                       : 4
Format                                   : VobSub
Muxing mode                              : zlib
Codec ID                                 : S_VOBSUB
Codec ID/Info                            : Picture based subtitle format used on DVDs
Duration                                 : 1 h 56 min
Bit rate                                 : 8 538 b/s
Count of elements                        : 1394
Stream size                              : 7.14 MiB (0%)
Language                                 : French
Default                                  : No
Forced                                   : No

Subtitle #3
ID                                       : 5
Format                                   : VobSub
Muxing mode                              : zlib
Codec ID                                 : S_VOBSUB
Codec ID/Info                            : Picture based subtitle format used on DVDs
Duration                                 : 1 h 55 min
Bit rate                                 : 6 978 b/s
Count of elements                        : 1278
Stream size                              : 5.78 MiB (0%)
Language                                 : French
Default                                  : No
Forced                                   : No

Subtitle #4
ID                                       : 6
Format                                   : VobSub
Muxing mode                              : zlib
Codec ID                                 : S_VOBSUB
Codec ID/Info                            : Picture based subtitle format used on DVDs
Duration                                 : 1 h 55 min
Bit rate                                 : 7 816 b/s
Count of elements                        : 1425
Stream size                              : 6.48 MiB (0%)
Language                                 : German
Default                                  : No
Forced                                   : No

Subtitle #5
ID                                       : 7
Format                                   : VobSub
Muxing mode                              : zlib
Codec ID                                 : S_VOBSUB
Codec ID/Info                            : Picture based subtitle format used on DVDs
Duration                                 : 1 h 55 min
Bit rate                                 : 7 565 b/s
Count of elements                        : 1358
Stream size                              : 6.27 MiB (0%)
Language                                 : Italian
Default                                  : No
Forced                                   : No

Subtitle #6
ID                                       : 8
Format                                   : VobSub
Muxing mode                              : zlib
Codec ID                                 : S_VOBSUB
Codec ID/Info                            : Picture based subtitle format used on DVDs
Duration                                 : 1 h 55 min
Bit rate                                 : 7 057 b/s
Count of elements                        : 1358
Stream size                              : 5.85 MiB (0%)
Language                                 : Norwegian Bokmal
Default                                  : No
Forced                                   : No

Subtitle #7
ID                                       : 9
Format                                   : VobSub
Muxing mode                              : zlib
Codec ID                                 : S_VOBSUB
Codec ID/Info                            : Picture based subtitle format used on DVDs
Duration                                 : 1 h 46 min
Bit rate                                 : 8 747 b/s
Count of elements                        : 1371
Stream size                              : 6.64 MiB (0%)
Language                                 : Spanish
Default                                  : No
Forced                                   : No

Subtitle #8
ID                                       : 10
Format                                   : VobSub
Muxing mode                              : zlib
Codec ID                                 : S_VOBSUB
Codec ID/Info                            : Picture based subtitle format used on DVDs
Duration                                 : 1 h 55 min
Bit rate                                 : 6 749 b/s
Count of elements                        : 945
Stream size                              : 5.60 MiB (0%)
Language                                 : Swedish
Default                                  : No
Forced                                   : No

Subtitle #9
ID                                       : 11
Format                                   : UTF-8
Codec ID                                 : S_TEXT/UTF8
Codec ID/Info                            : UTF-8 Plain Text
Duration                                 : 1 h 51 min
Bit rate                                 : 75 b/s
Count of elements                        : 1504
Stream size                              : 62.1 KiB (0%)
Language                                 : Arabic
Default                                  : No
Forced                                   : No

Subtitle #10
ID                                       : 12
Format                                   : UTF-8
Codec ID                                 : S_TEXT/UTF8
Codec ID/Info                            : UTF-8 Plain Text
Duration                                 : 1 h 55 min
Bit rate                                 : 36 b/s
Count of elements                        : 1383
Stream size                              : 30.7 KiB (0%)
Language                                 : Chinese
Default                                  : No
Forced                                   : No

Subtitle #11
ID                                       : 13
Format                                   : UTF-8
Codec ID                                 : S_TEXT/UTF8
Codec ID/Info                            : UTF-8 Plain Text
Duration                                 : 1 h 46 min
Bit rate                                 : 48 b/s
Count of elements                        : 1034
Stream size                              : 37.6 KiB (0%)
Language                                 : Danish
Default                                  : No
Forced                                   : No

Subtitle #12
ID                                       : 14
Format                                   : UTF-8
Codec ID                                 : S_TEXT/UTF8
Codec ID/Info                            : UTF-8 Plain Text
Duration                                 : 1 h 46 min
Bit rate                                 : 78 b/s
Count of elements                        : 1436
Stream size                              : 61.3 KiB (0%)
Language                                 : Persian
Default                                  : No
Forced                                   : No

Subtitle #13
ID                                       : 15
Format                                   : UTF-8
Codec ID                                 : S_TEXT/UTF8
Codec ID/Info                            : UTF-8 Plain Text
Duration                                 : 1 h 50 min
Bit rate                                 : 49 b/s
Count of elements                        : 1150
Stream size                              : 39.8 KiB (0%)
Language                                 : Dutch
Default                                  : No
Forced                                   : No

Subtitle #14
ID                                       : 16
Format                                   : UTF-8
Codec ID                                 : S_TEXT/UTF8
Codec ID/Info                            : UTF-8 Plain Text
Duration                                 : 1 h 57 min
Bit rate                                 : 43 b/s
Count of elements                        : 1372
Stream size                              : 37.3 KiB (0%)
Language                                 : Indonesian
Default                                  : No
Forced                                   : No

Subtitle #15
ID                                       : 17
Format                                   : UTF-8
Codec ID                                 : S_TEXT/UTF8
Codec ID/Info                            : UTF-8 Plain Text
Duration                                 : 1 h 50 min
Bit rate                                 : 52 b/s
Count of elements                        : 1483
Stream size                              : 42.4 KiB (0%)
Language                                 : Swedish
Default                                  : No
Forced                                   : No

Subtitle #16
ID                                       : 18
Format                                   : UTF-8
Codec ID                                 : S_TEXT/UTF8
Codec ID/Info                            : UTF-8 Plain Text
Duration                                 : 1 h 55 min
Bit rate                                 : 105 b/s
Count of elements                        : 1358
Stream size                              : 89.1 KiB (0%)
Language                                 : Thai
Default                                  : No
Forced                                   : No

Subtitle #17
ID                                       : 19
Format                                   : UTF-8
Codec ID                                 : S_TEXT/UTF8
Codec ID/Info                            : UTF-8 Plain Text
Duration                                 : 2 h 58 min
Bit rate                                 : 43 b/s
Count of elements                        : 1083
Stream size                              : 56.3 KiB (0%)
Language                                 : Vietnamese
Default                                  : No
Forced                                   : No

Menu
00:00:00.000                             : en:"Circle Of Life/Nants' Ingonyama"
00:04:50.499                             : en:"Life's Not Fair"
00:10:51.067                             : en:"Everything The Light Touches"
00:17:47.692                             : en:"I Just Can't Wait To Be King"
00:23:53.015                             : en:Elephant Graveyard
00:30:00.132                             : en:Under The Stars
00:33:05.066                             : en:"Be Prepared"
00:37:09.310                             : en:Stampede
00:43:42.912                             : en:Scar Takes Over
00:50:47.336                             : en:Timon And Pumbaa
00:55:02.716                             : en:"Hakuna Matata"
00:59:48.460                             : en:Scar's Kingdom
01:06:27.233                             : en:"Line Of Indifference"
01:14:32.093                             : en:"The Lion Sleeps Tonight"
01:18:26.410                             : en:"Can You Feel The Love Tonight"
01:23:07.900                             : en:"He Lives In You"
01:28:04.654                             : en:"Spirit"
01:33:10.877                             : en:Simba Confronts Scar
01:37:13.745                             : en:Battle For Pride Rock
01:44:39.190                             : en:The Rightful King
01:47:47.336                             : en:End Credits/"Never Too Late"



Source InformationRelease: The.Lion.King.2019.UHD.BluRay.2160p.TrueHD.Atmos.7.1.HEVC.REMUX-FraMeSToR.mkv (49.68 GBs)



Note From UTR
Whilst we are happy for our releases to be re-posted on a platform we aren't on, please do so in an 'as-is' format. We ask that you do not create a new torrent, include all descriptions you see above including the UTR logo, tags, notes and screenshots. If you'd like to become a permanent poster on a website we don't post to, feel free to get in contact with a UTR member.
If possible please donate: BTC 1QA5fum5AyXvWzdVCkQzUNvw3Ef15fHRaR



Category:Movies > HEVC/x265
Lang:English  English
Total Size:5.44 GB
Info Hash:c4e06b0bd146f38ebf926524bdf998faa3f30da8
Added By:UTR
Date Added:13-10-2019 18:35:44

Files

File List: 
 File Size
The Lion King 2019 (2160p x265 10bit FS88 Joy).mkv5.44 GB



Loading...
Comments

There are currently no comments. Be the first one to write something !