swat s03e08 south park 0 the mandalorian s01e01 charlies angels 2019 gemini man 2019 aew seal team s03e07 ford v ferrari 2019 DC Week marvel week zombieland double tap 2019 ethd Chicago Fire Supergirl watchmen riverdale maleficent mistress of evil 2019 Chicago Med seal team WWE joker 2019 Dream girl  ncis s17e08 Chicago PD s07e09 READY OR NOT Joker frozen ii 2019 always sunny His Dark Materials angel has fallen 2019 The flash evo hindi The Mandalorian s01e02 titans riverdale s04e07 xxx the flash s06e06 stumptown Mandalorian Arrow once upon a time in hollywood 2019 ncis Chicago Fire s08e09 the irishman 2019 SURVIVOR yts etmovies The Mandalorian Silicon Valley stumptown s01e07 Conan the walking dead modern family s11e07 treadstone s01e06 ettv fast furious presents hobbs shaw 2019 rick and morty chicago med s05e09 Treadstone rambo last blood 2019 terminator dark fate 2019 see Once Upon A Time In Hollywood arrow s08e05 gemini man nancy drew ddr Chicago PD etrg Modern Family 
Warning! Use a V.P.N When Downloading Torrents!
Your IP Address is 35.173.234.140. Location is United States
Your Internet Provider is tracking your torrent activity! Hide your IP ADDRESS with a V.P.N!
We strongly recommend using ExpressV.P.N to anonymize your torrenting. 30 Day Money Back Guarantee!
Try it Now!
ETTV Recommended TV Shows
Evil.S01E08.HDTV.x264-SVA[ettv] torrent
See (2019) S01E06 Silk (1080p ATVP Webrip x265 10bit EAC3 5.1 - Goki).mkv torrent
The.Mandalorian.S01E03.1080p.WEB.H264-PETRiFiED[EtHD] torrent
Titans.S02E12.WEBRip.x264-ION10 torrent

ETTV Recommended SD
Ready.or.Not.2019.BDRip.XviD.AC3-EVO torrent
Rambo.Last.Blood.2019.HC.HDRip.XViD-ETRG torrent
Overcomer.2019.HDRip.XviD.AC3-EVO[EtMovies] torrent
The.Courier.2019.HDRip.XViD-ETRG torrent

ETTV Recommended HD
Ready.or.Not.2019.1080p.Bluray.DTS-HD.MA.5.1.X264-EVO[EtHD] torrent
Rambo.Last.Blood.2019.HC.1080p.HDRip.X264.AC3-EVO[EtHD] torrent
Once.Upon.a.Time.in.Hollywood.2019.1080p.WEB-DL.DD5.1.H264-CMRG[EtHD] torrent
Daddys.Home.2015.BDRip.1080p.x264.Multilang.DTS.DD5.1.Gerald torrent

ETTV Recommended UHD
Three.Billboards.Outside.Ebbing.Missouri.2017.MULTi.UHD.Blu-ray.2160p.HDR.DTS-HDMA.5.1.HEVC-DDR torrent
Angel.Has.Fallen.2019.MULTi.UHD.BluRay.2160p.HDR.Atmos.7.1.HEVC-DDR torrent
Midsommar.2019.MULTi.UHD.Bluray.2160p.HDR.DTS-HDMA.5.1.HEVC-DDR torrent
Independence Day.1996.EXTENDED.4K.HDR.2160p.BDRip Ita Eng x265-NAHOM torrent

ETTV Recommended Cam
Ford v Ferrari 2019 NEW HDCAM X264-ETRG torrent
Charlies Angels 2019 NEW HD-TS  x264-ETRG torrent
Frozen 2 2019 720p HDCAM-GETB8 torrent
21 Bridges 2019 720p HDCAM-GETB8 torrent

ETTV Recommended Foreign
Keshava (2017) 720p UNCUT HDRip x264 [Dual Audio] [Hindi DD 2.0 - Telugu 2.0] Exclusive By -=!Dr.STAR!=- torrent
The.Climbers.2019.HC.HDRip.XviD.AC3-EVO[EtMovies] torrent
Fredrick.2016.Hindi.1080p.WEB-DL.x264.AAC -DDR[EtHD] torrent
Pagalpanti (2019) Hindi 720p PreDVD Rip x264 AAC 1.2GB CineVood Exclusive torrent


Download Torrent "The Lion King (2019) (1080p BluRay x265 HEVC 10bit TrueHD 7.1 Qman) [UTR]"

IMDB Details
Description:

After the murder of his father, a young lion prince flees his kingdom only to learn the true meaning of responsibility and bravery.

Genre:

Animation, Adventure, Drama, Family, Musical

Download Torrent (Magnet)
Download Torrent (File)
Seeds: 242
Leechers: 93
Completed: 1,048 
Last Checked: 17-10-2019 17:53:00


Loading...
Details
Title:The Lion King (2019) (1080p BluRay x265 HEVC 10bit TrueHD 7.1 Qman) [UTR]
Description:




Media Information

General
Format                                   : Matroska
Format version                           : Version 4 / Version 2
File size                                : 12.3 GiB
Duration                                 : 1 h 58 min
Overall bit rate mode                    : Variable
Overall bit rate                         : 14.9 Mb/s
Encoded date                             : UTC 2019-10-17 03:40:05
Writing application                      : mkvmerge v36.0.0 ('Is That Jazz?') 64-bit
Writing library                          : libebml v1.3.9 + libmatroska v1.5.2

Video
ID                                       : 1
Format                                   : HEVC
Format/Info                              : High Efficiency Video Coding
Format profile                           : Main [email protected]@Main
Codec ID                                 : V_MPEGH/ISO/HEVC
Duration                                 : 1 h 58 min
Bit rate                                 : 9 917 kb/s
Width                                    : 1 920 pixels
Height                                   : 1 080 pixels
Display aspect ratio                     : 16:9
Frame rate mode                          : Constant
Frame rate                               : 23.976 (24000/1001) FPS
Color space                              : YUV
Chroma subsampling                       : 4:2:0
Bit depth                                : 10 bits
Bits/(Pixel*Frame)                       : 0.199
Stream size                              : 8.19 GiB (66%)
Writing library                          : x265 3.1+8-21db162c8622:[Windows][MSVC 1921][64 bit] 10bit
Encoding settings                        : cpuid=1111039 / frame-threads=4 / numa-pools=16 / wpp / no-pmode / no-pme / no-psnr / no-ssim / log-level=2 / input-csp=1 / input-res=1920x1080 / interlace=0 / total-frames=170099 / level-idc=0 / high-tier=1 / uhd-bd=0 / ref=4 / no-allow-non-conformance / no-repeat-headers / annexb / no-aud / no-hrd / info / hash=0 / no-temporal-layers / open-gop / min-keyint=23 / keyint=250 / gop-lookahead=0 / bframes=8 / b-adapt=2 / b-pyramid / bframe-bias=0 / rc-lookahead=80 / lookahead-slices=4 / scenecut=40 / radl=0 / no-splice / no-intra-refresh / ctu=64 / min-cu-size=8 / no-rect / no-amp / max-tu-size=32 / tu-inter-depth=1 / tu-intra-depth=1 / limit-tu=0 / rdoq-level=2 / dynamic-rd=0.00 / no-ssim-rd / signhide / no-tskip / nr-intra=0 / nr-inter=0 / no-constrained-intra / no-strong-intra-smoothing / max-merge=3 / limit-refs=3 / limit-modes / me=3 / subme=5 / merange=57 / temporal-mvp / no-hme / weightp / no-weightb / no-analyze-src-pics / deblock=-2:-2 / no-sao / no-sao-non-deblock / rd=4 / no-early-skip / no-rskip / no-fast-intra / no-tskip-fast / no-cu-lossless / no-b-intra / no-splitrd-skip / rdpenalty=0 / psy-rd=1.50 / psy-rdoq=2.50 / no-rd-refine / no-lossless / cbqpoffs=0 / crqpoffs=0 / rc=crf / crf=18.0 / qcomp=0.60 / qpstep=4 / stats-write=0 / stats-read=0 / ipratio=1.40 / pbratio=1.30 / aq-mode=2 / aq-strength=1.00 / cutree / zone-count=0 / no-strict-cbr / qg-size=32 / no-rc-grain / qpmax=69 / qpmin=0 / no-const-vbv / sar=0 / overscan=0 / videoformat=5 / range=0 / colorprim=2 / transfer=2 / colormatrix=2 / chromaloc=0 / display-window=0cll=0,0 / min-luma=0 / max-luma=1023 / log2-max-poc-lsb=8 / vui-timing-info / vui-hrd-info / slices=1 / no-opt-qp-pps / no-opt-ref-list-length-pps / no-multi-pass-opt-rps / scenecut-bias=0.05 / no-opt-cu-delta-qp / no-aq-motion / no-hdr / no-hdr-opt / no-dhdr10-opt / no-idr-recovery-sei / analysis-reuse-level=5 / scale-factor=0 / refine-intra=0 / refine-inter=0 / refine-mv=0 / refine-ctu-distortion=0 / no-limit-sao / ctu-info=0 / no-lowpass-dct / refine-analysis-type=2949231 / copy-pic=1 / max-ausize-factor=1.0 / no-dynamic-refine / no-single-sei / no-hevc-aq / no-svt / no-field / qp-adaptation-range=1.00
Language                                 : English
Default                                  : Yes
Forced                                   : No

Audio
ID                                       : 2
Format                                   : Atmos / TrueHD
Codec ID                                 : A_TRUEHD
Duration                                 : 1 h 58 min
Bit rate mode                            : Variable
Bit rate                                 : 4 929 kb/s
Maximum bit rate                         : 7 332 kb/s
Channel(s)                               : Object Based / 8 channels
Channel positions                        : Object Based / Front: L C R, Side: L R, Back: L R, LFE
Sampling rate                            :  / 48.0 kHz
Frame rate                               : 1 200.000 FPS (40 spf)
Compression mode                         : Lossless
Stream size                              : 4.07 GiB (33%)
Language                                 : English
Default                                  : No
Forced                                   : No

Subtitle
ID                                       : 3
Format                                   : VobSub
Muxing mode                              : zlib
Codec ID                                 : S_VOBSUB
Codec ID/Info                            : Picture based subtitle format used on DVDs
Duration                                 : 1 h 52 min
Bit rate                                 : 10.2 kb/s
Count of elements                        : 1710
Stream size                              : 8.19 MiB (0%)
Language                                 : English
Default                                  : Yes
Forced                                   : No

Menu
00:00:00.000                             : en:"Circle Of Life/Nants' Ingonyama"
00:04:50.499                             : en:"Life's Not Fair"
00:10:51.067                             : en:"Everything The Light Touches"
00:17:47.692                             : en:"I Just Can't Wait To Be King"
00:23:53.015                             : en:Elephant Graveyard
00:30:00.132                             : en:Under The Stars
00:33:05.066                             : en:"Be Prepared"
00:37:09.310                             : en:Stampede
00:43:42.912                             : en:Scar Takes Over
00:50:47.336                             : en:Timon And Pumbaa
00:55:02.716                             : en:"Hakuna Matata"
00:59:48.460                             : en:Scar's Kingdom
01:06:27.233                             : en:"Line Of Indifference"
01:14:32.093                             : en:"The Lion Sleeps Tonight"
01:18:26.410                             : en:"Can You Feel The Love Tonight"
01:23:07.900                             : en:"He Lives In You"
01:28:04.654                             : en:"Spirit"
01:33:10.877                             : en:Simba Confronts Scar
01:37:13.745                             : en:Battle For Pride Rock
01:44:39.190                             : en:The Rightful King
01:47:47.336                             : en:End Credits/"Never Too Late"

Source Information
Release:
The.Lion.King.2019.UHD.BluRay.2160p.TrueHD.Atmos.7.1.HEVC.REMUX-FraMeSToR 49.6GB



Category:Movies > HEVC/x265
Lang:English  English
Total Size:12.32 GB
Info Hash:d0dd42b96209f47fe646e94e3cc4fb404401b23d
Added By:UTR
Date Added:17-10-2019 17:52:57

Files

File List: 
 File Size
The.Lion.King.(2019).1080p.BluRay.10-bit.x265.TrueHD.7.1 Qman[UTR].mkv12.32 GB



Loading...
Comments

There are currently no comments. Be the first one to write something !