the curse of oak island s07e03 the mandalorian s01e01 fast furious presents hobbs shaw 2019 etrg Mr Robot zombieland double tap 2019 xxx etmovies New Amsterdam new amsterdam s02e09 rick and morty s04e02 The Irishman 2019 ethd Arrow This IS Us Silicon Valley batwoman the good doctor fbi s02e08 rick and morty 0 maleficent mistress of evil 2019 The Mandalorian the flash s06e06 hindi the resident this is us s04e09 flash Supergirl hustlers 2019 His Dark Materials TREADSTONE Emergence the good doctor s03e08 ncis arrow s08e05 charlies angels 2019 wwe it Chapter two Emergence S01E07 rambo last blood 2019 once upon a time in hollywood gemini man gemini man 2019 empire s06e07 angel has fallen 2019 yts marvel week the mandalorian s01e02 the purge s02e06 ncis s17e08 treadstone s01e06 ddr evo terminator dark fate 2019 ford v ferrari 2019 fbi mandalorian titans ettv the walking dead s10e07 Joker the resident s03e07 The purge the walking dead See The Flash watchmen s01e05 joker 2019 Watchmen 
Warning! Use a V.P.N When Downloading Torrents!
Your IP Address is 34.231.21.123. Location is United States
Your Internet Provider is tracking your torrent activity! Hide your IP ADDRESS with a V.P.N!
We strongly recommend using ExpressV.P.N to anonymize your torrenting. 30 Day Money Back Guarantee!
Try it Now!
ETTV Recommended TV Shows
The.Resident.S03E07.WEB.x264-TBS[ettv] torrent
New.Amsterdam.2018.S02E09.HDTV.x264-KILLERS[ettv] torrent
Emergence.S01E07.HDTV.x264-SVA[ettv] torrent
Treadstone.S01E06.iNTERNAL.WEB.h264-TRUMP[ettv] torrent

ETTV Recommended SD
Killerman.2019.HDRip.XViD-ETRG torrent
Gemini.Man.2019.HDRip.XViD-ETRG torrent
Once Upon A Time In Hollywood.2019.HDRip.XviD-EVO torrent
Ready.or.Not.2019.DVDRip.XviD.AC3-EVO[EtMovies] torrent

ETTV Recommended HD
Palm.Beach.2019.1080p.BluRay.x264-PFa[EtHD] torrent
Random Acts of Christmas 2019 Lifetime 720p Web X264 Solar torrent
Once Upon A Time In Hollywood.2019.1080p.HDRip.X264.AC3-EVO[EtHD] torrent
American.Hustle.2013.BDRip.1080p.x264.DTS.DD5.1.Gerald torrent

ETTV Recommended UHD
The Boss Baby 2017.MULTi.UHD.Blu-ray.2160p.HDR.Atmos.7.1.HEVC-DDR torrent
Three.Billboards.Outside.Ebbing.Missouri.2017.MULTi.UHD.Blu-ray.2160p.HDR.DTS-HDMA.5.1.HEVC-DDR torrent
Angel.Has.Fallen.2019.MULTi.UHD.BluRay.2160p.HDR.Atmos.7.1.HEVC-DDR torrent
Midsommar.2019.MULTi.UHD.Bluray.2160p.HDR.DTS-HDMA.5.1.HEVC-DDR torrent

ETTV Recommended Cam
Motherless Brooklyn 2019 NEW HDCAM x264-ETRG torrent
Hustlers 2019 NEW HDTS x264 AC3-ETRG torrent
Ford v Ferrari 2019 NEW HDCAM X264-ETRG torrent
Charlies Angels 2019 NEW HD-TS  x264-ETRG torrent

ETTV Recommended Foreign
Devadas (2018) 720p UNCUT HDRip x264 Eng Subs [Dual Audio] [Hindi DD 2.0 - Telugu 5.1] Exclusive By -=!Dr.STAR!=- torrent
Dream Girl.2019.Hindi.1080p.WEB-DL.x264.AAC -DDR[EtHD] torrent
Dora And The Lost City Of Gold (2019)[720p BDRip - Original Auds - [Tamil + Telugu + Hin + Eng] - x264 - 1GB - ESubs] torrent
Doorbeen (2019) Punjabi 720p HDRip x264 AAC ESubs - Downloadhub torrent


Download Torrent "Dawn of the Planet of the Apes (2014)Mp-4 X264 1080p AAC[DSD]"

IMDB Details
Description:

A growing nation of genetically evolved apes led by Caesar is threatened by a band of human survivors of the devastating virus unleashed a decade earlier.

Genre:

Action, Adventure, Drama, Sci-Fi

Download Torrent (Magnet)
Download Torrent (File)
Seeds: 83
Leechers: 5
Completed: 313 
Last Checked: 18-10-2019 02:59:48


Details
Title:Dawn of the Planet of the Apes (2014)Mp-4 X264 1080p AAC[DSD]
Description:
Seedboxed!!




General

Complete name                            : Dawn of the Planet of the Apes.mp4

Format                                   : MPEG-4

Format profile                           : Base Media / Version 2

Codec ID                                 : mp42 (isom/iso2/avc1/mp41)

File size                                : 1.71 GiB

Duration                                 : 2 h 10 min

Overall bit rate                         : 1 879 kb/s

Movie name                               : Dawn of the Planet of the Apes.theatrical

Encoded date                             : UTC 2019-10-17 03:04:43

Tagged date                              : UTC 2019-10-17 03:04:43

Writing application                      : HandBrake 1.2.2 2019022300


Video

ID                                       : 1

Format                                   : AVC

Format/Info                              : Advanced Video Codec

Format profile                           : [email protected]

Format settings                          : CABAC / 4 Ref Frames

Format settings, CABAC                   : Yes

Format settings, RefFrames               : 4 frames

Codec ID                                 : avc1

Codec ID/Info                            : Advanced Video Coding

Duration                                 : 2 h 10 min

Bit rate                                 : 1 712 kb/s

Width                                    : 1 920 pixels

Height                                   : 1 038 pixels

Display aspect ratio                     : 1.85:1

Frame rate mode                          : Variable

Frame rate                               : 23.976 FPS

Minimum frame rate                       : 11.987 FPS

Maximum frame rate                       : 23.981 FPS

Color space                              : YUV

Chroma subsampling                       : 4:2:0

Bit depth                                : 8 bits

Scan type                                : Progressive

Bits/(Pixel*Frame)                       : 0.036

Stream size                              : 1.56 GiB (91%)

Writing library                          : x264 core 157 r2935 545de2f

Encoding settings                        : cabac=1 / ref=1 / deblock=1:0:0 / analyse=0x1:0x111 / me=hex / subme=2 / psy=1 / psy_rd=1.00:0.00 / mixed_ref=0 / me_range=16 / chroma_me=1 / trellis=0 / 8x8dct=0 / cqm=0 / deadzone=21,11 / fast_pskip=1 / chroma_qp_offset=0 / threads=3 / lookahead_threads=1 / sliced_threads=0 / nr=0 / decimate=1 / interlaced=0 / bluray_compat=0 / constrained_intra=0 / bframes=3 / b_pyramid=2 / b_adapt=1 / b_bias=0 / direct=1 / weightb=1 / open_gop=0 / weightp=1 / keyint=240 / keyint_min=24 / scenecut=40 / intra_refresh=0 / rc_lookahead=10 / rc=crf / mbtree=1 / crf=24.0 / qcomp=0.60 / qpmin=0 / qpmax=69 / qpstep=4 / vbv_maxrate=20000 / vbv_bufsize=25000 / crf_max=0.0 / nal_hrd=none / filler=0 / ip_ratio=1.40 / aq=1:1.00

Encoded date                             : UTC 2019-10-17 03:04:43

Tagged date                              : UTC 2019-10-17 03:04:43

Color range                              : Limited

Color primaries                          : BT.709

Transfer characteristics                 : BT.709

Matrix coefficients                      : BT.709

Menus                                    : 3


Audio

ID                                       : 2

Format                                   : AAC

Format/Info                              : Advanced Audio Codec

Format profile                           : LC

Codec ID                                 : mp4a-40-2

Duration                                 : 2 h 10 min

Bit rate mode                            : Constant

Bit rate                                 : 160 kb/s

Channel(s)                               : 2 channels

Channel positions                        : Front: L R

Sampling rate                            : 48.0 kHz

Frame rate                               : 46.875 FPS (1024 SPF)

Compression mode                         : Lossy

Stream size                              : 150 MiB (9%)

Title                                    : Stereo

Language                                 : English

Default                                  : Yes

Alternate group                          : 1

Encoded date                             : UTC 2019-10-17 03:04:43

Tagged date                              : UTC 2019-10-17 03:04:43


Menus                                    : 3

Category:Movies > HD 1080p
Lang:English  English
Total Size:1.71 GB
Info Hash:bd6225c3409ab98955822265825081d910218e82
Added By:DaScubaDude
Date Added:18-10-2019 02:59:44

  

Files

File List: 
 File Size
Dawn of the Planet of the Apes.mp41.71 GB



Loading...
Comments

There are currently no comments. Be the first one to write something !