charlies angels 2019 Titans titans s02e11 his dark materials the mandalorian s01e01 ford v ferrari 2019 once upon a time in hollywood ddr the good doctor s03e08 Rick And Morty S04E02 bull Angel has fallen it Chapter two rick and morty silicon valley S06E04 rambo last blood 2019 The Mandalorian terminator dark fate 2019 maleficent mistress of evil 2019 wwe xxx hustlers 2019 the walking dead s10e07 mandalorian batwoman mr robot s04e07 batwoman s01e07 all rise s01e08 Supergirl watchmen zombieland double tap 2019 silicon valley the crown all rise joker gemini man 2019 Star Wars Jedi Fallen Order hindi good doctor bull s04e08 watchmen s01e05 see the mandalorian s01e02 etmovies ethd evo The Morning Show the rookie s02e08 Last Week Tonight The Flash yts It supergirl s05e07 harriet 2019 ettv godfather of harlem s01e08 etrg bluff city law s01e09 joker 2019 the irishman 2019 the good doctor all american s02e06 0 Mr Robot His Dark Materials S01E03 angel has fallen 2019 black lightning black lightning s03e06 the walking dead Shameless s10e02 fast furious presents hobbs shaw 2019 gemini man 
Warning! Use a V.P.N When Downloading Torrents!
Your IP Address is 35.173.234.140. Location is United States
Your Internet Provider is tracking your torrent activity! Hide your IP ADDRESS with a V.P.N!
We strongly recommend using ExpressV.P.N to anonymize your torrenting. 30 Day Money Back Guarantee!
Try it Now!
ETTV Recommended TV Shows
The.Resident.S03E07.WEB.x264-TBS[ettv] torrent
New.Amsterdam.2018.S02E09.HDTV.x264-KILLERS[ettv] torrent
Emergence.S01E07.HDTV.x264-SVA[ettv] torrent
Treadstone.S01E06.iNTERNAL.WEB.h264-TRUMP[ettv] torrent

ETTV Recommended SD
It.Chapter.Two.2019.HDRip.XviD.AC3-EVO[EtMovies] torrent
Killerman.2019.HDRip.XViD-ETRG torrent
Gemini.Man.2019.HDRip.XViD-ETRG torrent
Once Upon A Time In Hollywood.2019.HDRip.XviD-EVO torrent

ETTV Recommended HD
Gemini.Man.2019.1080p.WEB-DL.DD5.1.H264-CMRG[EtHD] torrent
Palm.Beach.2019.1080p.BluRay.x264-PFa[EtHD] torrent
Random Acts of Christmas 2019 Lifetime 720p Web X264 Solar torrent
Once Upon A Time In Hollywood.2019.1080p.HDRip.X264.AC3-EVO[EtHD] torrent

ETTV Recommended UHD
The Boss Baby 2017.MULTi.UHD.Blu-ray.2160p.HDR.Atmos.7.1.HEVC-DDR torrent
Three.Billboards.Outside.Ebbing.Missouri.2017.MULTi.UHD.Blu-ray.2160p.HDR.DTS-HDMA.5.1.HEVC-DDR torrent
Angel.Has.Fallen.2019.MULTi.UHD.BluRay.2160p.HDR.Atmos.7.1.HEVC-DDR torrent
Midsommar.2019.MULTi.UHD.Bluray.2160p.HDR.DTS-HDMA.5.1.HEVC-DDR torrent

ETTV Recommended Cam
Motherless Brooklyn 2019 NEW HDCAM x264-ETRG torrent
Hustlers 2019 NEW HDTS x264 AC3-ETRG torrent
Ford v Ferrari 2019 NEW HDCAM X264-ETRG torrent
Charlies Angels 2019 NEW HD-TS  x264-ETRG torrent

ETTV Recommended Foreign
Go.The.Unforgettable.Party.2019.iNTERNAL.MULTi.1080p.WEB.x264-CiELOS[EtHD] torrent
Attack On Titan (2015) x264 720p UNRATED BluRay Eng Subs {Dual Audio} [Hindi ORG DD 2.0 + JAP 2.0] Exclusive By DREDD torrent
Jind Jaan 2019 x264 720p SD Punjabi GOPISAHI torrent
Devadas (2018) 720p UNCUT HDRip x264 Eng Subs [Dual Audio] [Hindi DD 2.0 - Telugu 5.1] Exclusive By -=!Dr.STAR!=- torrent


Download Torrent "Rogue One: A Star Wars Story (2016)Mp-4 X264 1080p AAC[DSD]"

IMDB Details
Description:

The daughter of an Imperial scientist joins the Rebel Alliance in a risky move to steal the Death Star plans.

Genre:

Action, Adventure, Sci-Fi

Download Torrent (Magnet)
Download Torrent (File)
Seeds: 54
Leechers: 11
Completed: 521 
Last Checked: 18-10-2019 16:22:14


Details
Title:Rogue One: A Star Wars Story (2016)Mp-4 X264 1080p AAC[DSD]
Description:
Seedboxed!!




General

Complete name                            : Rogue One- A Star Wars Story.mp4

Format                                   : MPEG-4

Format profile                           : Base Media / Version 2

Codec ID                                 : mp42 (mp42/isom/avc1)

File size                                : 2.11 GiB

Duration                                 : 2 h 13 min

Overall bit rate mode                    : Variable

Overall bit rate                         : 2 250 kb/s

Movie name                               : Rogue One: A Star Wars Story

Performer                                : Gareth Edwards

Performer/Sorted by                      : Gareth Edwards

Genre                                    : Action & Adventure & Science Fiction

Description                              : A rogue band of resistance fighters unite for a mission to steal the Death Star plans and bring a new hope to the galaxy.

Encoded date                             : UTC 2019-10-17 23:27:04

Tagged date                              : UTC 2019-10-18 01:19:14

Writing application                      : DVDFab 11.0.5.5

Cover                                    : Yes

Title/Sort                               : Rogue One: A Star Wars Story

LongDescription                          : A rogue band of resistance fighters unite for a mission to steal the Death Star plans and bring a new hope to the galaxy.


Video

ID                                       : 1

Format                                   : AVC

Format/Info                              : Advanced Video Codec

Format profile                           : [email protected]

Format settings                          : CABAC / 2 Ref Frames

Format settings, CABAC                   : Yes

Format settings, RefFrames               : 2 frames

Format settings, GOP                     : M=1, N=24

Codec ID                                 : avc1

Codec ID/Info                            : Advanced Video Coding

Duration                                 : 2 h 13 min

Source duration                          : 2 h 13 min

Bit rate mode                            : Variable

Bit rate                                 : 1 791 kb/s

Maximum bit rate                         : 2 776 kb/s

Width                                    : 1 920 pixels

Height                                   : 804 pixels

Display aspect ratio                     : 2.40:1

Frame rate mode                          : Constant

Frame rate                               : 23.976 (24000/1001) FPS

Color space                              : YUV

Chroma subsampling                       : 4:2:0

Bit depth                                : 8 bits

Scan type                                : Progressive

Bits/(Pixel*Frame)                       : 0.048

Stream size                              : 1.68 GiB (80%)

Source stream size                       : 1.68 GiB (80%)

Encoded date                             : UTC 2019-10-17 23:27:04

Tagged date                              : UTC 2019-10-18 01:19:14

Color primaries                          : BT.709

Transfer characteristics                 : BT.709

Matrix coefficients                      : BT.709

Menus                                    : 4


Audio

ID                                       : 2

Format                                   : AAC

Format/Info                              : Advanced Audio Codec

Format profile                           : LC

Codec ID                                 : mp4a-40-2

Duration                                 : 2 h 13 min

Bit rate mode                            : Variable

Bit rate                                 : 448 kb/s

Maximum bit rate                         : 456 kb/s

Channel(s)                               : 6 channels

Channel positions                        : Front: L C R, Side: L R, LFE

Sampling rate                            : 48.0 kHz

Frame rate                               : 46.875 FPS (1024 SPF)

Compression mode                         : Lossy

Stream size                              : 429 MiB (20%)

Title                                    : English (aac 5.1)

Language                                 : English

Default                                  : Yes

Alternate group                          : 1

Encoded date                             : UTC 2019-10-17 23:27:04

Tagged date                              : UTC 2019-10-18 01:19:14


Text

ID                                       : 3

Format                                   : VobSub

Codec ID                                 : mp4s-E0

Codec ID/Info                            : The same subtitle format used on DVDs

Duration                                 : 2 h 5 min

Bit rate mode                            : Variable

Bit rate                                 : 8 861 b/s

Maximum bit rate                         : 4 249 Mb/s

Stream size                              : 7.97 MiB (0%)

Language                                 : English

Default                                  : Yes

Forced                                   : No

Alternate group                          : 2

Encoded date                             : UTC 2019-10-17 23:27:04


Tagged date                              : UTC 2019-10-18 01:12:31

Category:Movies > HD 1080p
Lang:English  English
Total Size:2.11 GB
Info Hash:ef65cd8e9a8c02fdca09e69c2ab0c3ac460e5fd0
Added By:DaScubaDude
Date Added:18-10-2019 16:22:10

  

Files

File List: 
 File Size
Rogue One- A Star Wars Story.theatrical.mp42.11 GB



Loading...
Comments

There are currently no comments. Be the first one to write something !