charlies angels 2019 Titans titans s02e11 his dark materials the mandalorian s01e01 ford v ferrari 2019 once upon a time in hollywood ddr the good doctor s03e08 Rick And Morty S04E02 bull Angel has fallen it Chapter two rick and morty silicon valley S06E04 rambo last blood 2019 The Mandalorian terminator dark fate 2019 maleficent mistress of evil 2019 wwe xxx hustlers 2019 the walking dead s10e07 mandalorian batwoman mr robot s04e07 batwoman s01e07 all rise s01e08 Supergirl watchmen zombieland double tap 2019 silicon valley the crown all rise joker gemini man 2019 Star Wars Jedi Fallen Order hindi good doctor bull s04e08 watchmen s01e05 see the mandalorian s01e02 etmovies ethd evo The Morning Show the rookie s02e08 Last Week Tonight The Flash yts It supergirl s05e07 harriet 2019 ettv godfather of harlem s01e08 etrg bluff city law s01e09 joker 2019 the irishman 2019 the good doctor all american s02e06 0 Mr Robot His Dark Materials S01E03 angel has fallen 2019 black lightning black lightning s03e06 the walking dead Shameless s10e02 fast furious presents hobbs shaw 2019 gemini man 
Warning! Use a V.P.N When Downloading Torrents!
Your IP Address is 35.173.234.140. Location is United States
Your Internet Provider is tracking your torrent activity! Hide your IP ADDRESS with a V.P.N!
We strongly recommend using ExpressV.P.N to anonymize your torrenting. 30 Day Money Back Guarantee!
Try it Now!
ETTV Recommended TV Shows
The.Resident.S03E07.WEB.x264-TBS[ettv] torrent
New.Amsterdam.2018.S02E09.HDTV.x264-KILLERS[ettv] torrent
Emergence.S01E07.HDTV.x264-SVA[ettv] torrent
Treadstone.S01E06.iNTERNAL.WEB.h264-TRUMP[ettv] torrent

ETTV Recommended SD
It.Chapter.Two.2019.HDRip.XviD.AC3-EVO[EtMovies] torrent
Killerman.2019.HDRip.XViD-ETRG torrent
Gemini.Man.2019.HDRip.XViD-ETRG torrent
Once Upon A Time In Hollywood.2019.HDRip.XviD-EVO torrent

ETTV Recommended HD
Gemini.Man.2019.1080p.WEB-DL.DD5.1.H264-CMRG[EtHD] torrent
Palm.Beach.2019.1080p.BluRay.x264-PFa[EtHD] torrent
Random Acts of Christmas 2019 Lifetime 720p Web X264 Solar torrent
Once Upon A Time In Hollywood.2019.1080p.HDRip.X264.AC3-EVO[EtHD] torrent

ETTV Recommended UHD
The Boss Baby 2017.MULTi.UHD.Blu-ray.2160p.HDR.Atmos.7.1.HEVC-DDR torrent
Three.Billboards.Outside.Ebbing.Missouri.2017.MULTi.UHD.Blu-ray.2160p.HDR.DTS-HDMA.5.1.HEVC-DDR torrent
Angel.Has.Fallen.2019.MULTi.UHD.BluRay.2160p.HDR.Atmos.7.1.HEVC-DDR torrent
Midsommar.2019.MULTi.UHD.Bluray.2160p.HDR.DTS-HDMA.5.1.HEVC-DDR torrent

ETTV Recommended Cam
Motherless Brooklyn 2019 NEW HDCAM x264-ETRG torrent
Hustlers 2019 NEW HDTS x264 AC3-ETRG torrent
Ford v Ferrari 2019 NEW HDCAM X264-ETRG torrent
Charlies Angels 2019 NEW HD-TS  x264-ETRG torrent

ETTV Recommended Foreign
Go.The.Unforgettable.Party.2019.iNTERNAL.MULTi.1080p.WEB.x264-CiELOS[EtHD] torrent
Attack On Titan (2015) x264 720p UNRATED BluRay Eng Subs {Dual Audio} [Hindi ORG DD 2.0 + JAP 2.0] Exclusive By DREDD torrent
Jind Jaan 2019 x264 720p SD Punjabi GOPISAHI torrent
Devadas (2018) 720p UNCUT HDRip x264 Eng Subs [Dual Audio] [Hindi DD 2.0 - Telugu 5.1] Exclusive By -=!Dr.STAR!=- torrent


Download Torrent "The Righteous Gemstones (2019) Season 1 S01 (1080p AMZN WEB-DL x265 HEVC 10..."

IMDB Details
Description:

Follows a world-famous televangelist family with a long tradition of deviance, greed, and charitable work.

Genre:

Comedy

Download Torrent (Magnet)
Download Torrent (File)
Seeds: 401
Leechers: 264
Completed: 1,623 
Last Checked: 20-10-2019 12:07:13


Loading...
Details
Title:The Righteous Gemstones (2019) Season 1 S01 (1080p AMZN WEB-DL x265 HEVC 10...
Description:





Media Information

General
Format                                   : Matroska
Format version                           : Version 4 / Version 2
File size                                : 975 MiB
Duration                                 : 35 min 53 s
Overall bit rate                         : 3 796 kb/s
Encoded date                             : UTC 2019-10-18 03:38:40
Writing application                      : mkvmerge v20.0.0 ('I Am The Sun') 64-bit
Writing library                          : libebml v1.3.5 + libmatroska v1.4.8
Writing frontend                         : StaxRip v1.7.0.6

Video
ID                                       : 1
Format                                   : HEVC
Format/Info                              : High Efficiency Video Coding
Format profile                           : Main [email protected]@Main
Codec ID                                 : V_MPEGH/ISO/HEVC
Duration                                 : 35 min 53 s
Bit rate                                 : 3 346 kb/s
Width                                    : 1 920 pixels
Height                                   : 1 080 pixels
Display aspect ratio                     : 16:9
Frame rate mode                          : Constant
Frame rate                               : 23.976 (24000/1001) FPS
Color space                              : YUV
Chroma subsampling                       : 4:2:0
Bit depth                                : 10 bits
Bits/(Pixel*Frame)                       : 0.067
Stream size                              : 859 MiB (88%)
Writing library                          : x265 3.2+5-354901970679:[Windows][GCC 9.2.0][64 bit] 10bit
Encoding settings                        : cpuid=1111039 / frame-threads=3 / numa-pools=12 / wpp / no-pmode / no-pme / no-psnr / ssim / log-level=2 / input-csp=1 / input-res=1920x1080 / interlace=0 / total-frames=51632 / level-idc=0 / high-tier=1 / uhd-bd=0 / ref=3 / no-allow-non-conformance / no-repeat-headers / annexb / no-aud / no-hrd / info / hash=0 / no-temporal-layers / open-gop / min-keyint=23 / keyint=250 / gop-lookahead=0 / bframes=8 / b-adapt=2 / b-pyramid / bframe-bias=0 / rc-lookahead=80 / lookahead-slices=6 / scenecut=40 / radl=0 / no-splice / no-intra-refresh / ctu=64 / min-cu-size=8 / no-rect / no-amp / max-tu-size=32 / tu-inter-depth=1 / tu-intra-depth=1 / limit-tu=0 / rdoq-level=0 / dynamic-rd=0.00 / no-ssim-rd / signhide / no-tskip / nr-intra=0 / nr-inter=0 / no-constrained-intra / no-strong-intra-smoothing / max-merge=3 / limit-refs=1 / no-limit-modes / me=3 / subme=5 / merange=57 / temporal-mvp / no-frame-dup / no-hme / weightp / no-weightb / no-analyze-src-pics / deblock=0:0 / sao / no-sao-non-deblock / rd=3 / selective-sao=4 / early-skip / no-rskip / no-fast-intra / no-tskip-fast / no-cu-lossless / b-intra / no-splitrd-skip / rdpenalty=0 / psy-rd=2.00 / psy-rdoq=0.00 / no-rd-refine / no-lossless / cbqpoffs=0 / crqpoffs=0 / rc=crf / crf=20.0 / qcomp=0.60 / qpstep=4 / stats-write=0 / stats-read=0 / ipratio=1.40 / pbratio=1.30 / aq-mode=3 / aq-strength=0.80 / cutree / zone-count=0 / no-strict-cbr / qg-size=32 / no-rc-grain / qpmax=69 / qpmin=0 / no-const-vbv / sar=0 / overscan=0 / videoformat=5 / range=0 / colorprim=2 / transfer=2 / colormatrix=2 / chromaloc=0 / display-window=0 / cll=0,0 / min-luma=0 / max-luma=1023 / log2-max-poc-lsb=8 / vui-timing-info / vui-hrd-info / slices=1 / no-opt-qp-pps / no-opt-ref-list-length-pps / no-multi-pass-opt-rps / scenecut-bias=0.05 / no-opt-cu-delta-qp / no-aq-motion / no-hdr / no-hdr-opt / no-dhdr10-opt / no-idr-recovery-sei / analysis-reuse-level=5 / scale-factor=0 / refine-intra=0 / refine-inter=0 / refine-mv=1 / refine-ctu-distortion=0 / no-limit-sao / ctu-info=0 / no-lowpass-dct / refine-analysis-type=0 / copy-pic=1 / max-ausize-factor=1.0 / no-dynamic-refine / no-single-sei / no-hevc-aq / no-svt / no-field / qp-adaptation-range=1.00
Default                                  : Yes
Forced                                   : No

Audio
ID                                       : 2
Format                                   : AAC
Format/Info                              : Advanced Audio Codec
Format profile                           : LC
Codec ID                                 : A_AAC
Duration                                 : 35 min 53 s
Bit rate                                 : 448 kb/s
Channel(s)                               : 6 channels
Channel positions                        : Front: L C R, Side: L R, LFE
Sampling rate                            : 48.0 kHz
Frame rate                               : 46.875 FPS (1024 spf)
Compression mode                         : Lossy
Delay relative to video                  : 14 ms
Stream size                              : 115 MiB (12%)
Language                                 : English
Default                                  : Yes
Forced                                   : Yes

Subtitle
ID                                       : 3
Format                                   : UTF-8
Codec ID                                 : S_TEXT/UTF8
Codec ID/Info                            : UTF-8 Plain Text
Duration                                 : 35 min 43 s
Bit rate                                 : 112 b/s
Count of elements                        : 896
Stream size                              : 29.5 KiB (0%)
Language                                 : English
Default                                  : No
Forced                                   : No

Source Information
Amazon WEB-DL


Category:TV > HEVC/x265
Lang:English  English
Total Size:9.64 GB
Info Hash:5853bf05a0463179ea6d1c661e93b2f854a75171
Added By:Vyndros
Date Added:20-10-2019 12:07:10

  

Files

File List: 
 File Size
The.Righteous.Gemstones.S01E01.The.Righteous.Gemstones.1080p.10bit.AMZN.WEB-DL.AAC5.1.HEVC-Vyndros.mkv1.49 GB
The.Righteous.Gemstones.S01E02.Is.This.the.Man.Who.Made.the.Earth.Tremble.1080p.10bit.AMZN.WEB-DL.AAC5.1.HEVC-Vyndros.mkv740 MB
The.Righteous.Gemstones.S01E03.They.Are.Weak,.But.He.Is.Strong.1080p.10bit.AMZN.WEB-DL.AAC5.1.HEVC-Vyndros.mkv975 MB
The.Righteous.Gemstones.S01E04.Wicked.Lips.1080p.10bit.AMZN.WEB-DL.AAC5.1.HEVC-Vyndros.mkv1.02 GB
The.Righteous.Gemstones.S01E05.Interlude.1080p.10bit.AMZN.WEB-DL.AAC5.1.HEVC-Vyndros.mkv1.26 GB
The.Righteous.Gemstones.S01E06.Now.the.Sons.of.Eli.Were.Worthless.Men.1080p.10bit.AMZN.WEB-DL.AAC5.1.HEVC-Vyndros.mkv1.05 GB
The.Righteous.Gemstones.S01E07.And.Yet.One.of.You.Is.a.Devil.1080p.10bit.AMZN.WEB-DL.AAC5.1.HEVC-Vyndros.mkv962 MB
The.Righteous.Gemstones.S01E08.But.the.Righteous.Will.See.Their.Fall.1080p.10bit.AMZN.WEB-DL.AAC5.1.HEVC-Vyndros.mkv982 MB
The.Righteous.Gemstones.S01E09.Better.is.the.End.of.a.Thing.Than.Its.Beginning.1080p.10bit.AMZN.WEB-DL.AAC5.1.HEVC-Vyndros.mkv1.26 GB



Loading...
Comments

There are currently no comments. Be the first one to write something !