homeland Doctor Who Yts manifest S02E07 Bull S04E15 ddr picard ncis All Rise S01E16 Good Girls S03E01 etrg The Outsider S01E07 Prodigal Son S01E15 knives out Outlander s05e01 Bad Boys for Life 2020 The Good Doctor S03E15 parasite 2019 birds of prey (and the fantabulous emancipation of one harley quinn) 2020 Frozen II 2019 evo jumanji the next level 2019 The Bachelor S24E08 The Gentlemen 2020 the outsider yts Family Guy s18e11 Midway 2019 vikings jumanji 0 Dolittle 2020 Jojo Rabbit 2019 homeland s08e02 1917 2019 sonic the hedgehog 2020 star wars etmovies batwoman avenue 5 s01e05 bull the good doctor Joker 2019 supergirl NCIS Los Angeles S11E14 ford v ferrari 2019 outlander Manifest Hindi prodigal son Endeavour supergirl s05e12 Star Trek Picard S01E04 Ettv The Neighborhood S02E16 Underwater 2020 xxx Fantasy Island 2020 rq.mp4 nascar knives out 2019 parasite WWE Avenue 5 charlies angels 2019 Terminator Dark Fate 2019 Star Wars The Rise of Skywalker 2019 9-1-1 Lone Star S01E06 the gentlemen 2019 21 bridges 2019 batwoman s01e12 ethd 
Warning! Use a V.P.N When Downloading Torrents!
Your IP Address is 34.204.191.0. Location is United States
Your Internet Provider is tracking your torrent activity! Hide your IP ADDRESS with a V.P.N!
We strongly recommend using ExpressV.P.N to anonymize your torrenting. 30 Day Money Back Guarantee!
Try it Now!
ETTV Recommended TV Shows
The.Resident.S03E15.WEB.x264-XLF[ettv] torrent
FBI.Most.Wanted.S01E06.HDTV.x264-SVA[ettv] torrent
NCIS.S17E16.HDTV.x264-KILLERS[ettv] torrent
The.Flash.2014.S06E12.HDTV.x264-SVA[ettv] torrent
DCs.Legends.of.Tomorrow.S05E05.HDTV.x264-SVA[ettv] torrent
FBI.S02E16.HDTV.x264-KILLERS[ettv] torrent
This.Is.Us.S04E14.HDTV.x264-KILLERS[ettv] torrent
New.Amsterdam.2018.S02E14.HDTV.x264-KILLERS[ettv] torrent

ETTV Recommended SD
Queen.and.Slim.2019.HDRip.XViD.AC3-ETRG torrent
Hollywould.2019.HDRip.XviD.AC3-EVO torrent
Sunday.Girl.2019.HDRip.XviD.AC3-EVO torrent
A.Prayer.For.The.Damned.2019.HDRip.XviD.AC3-EVO torrent

ETTV Recommended HD
Hollywould.2019.1080p.WEB-DL.H264.AC3-EVO[EtHD] torrent
Dark.Waters.2019.1080p.AMZN.WEB-DL.DDP5.1.H.264-NTG[EtHD] torrent
Chop.Chop.Chang.Operation.C.H.I.M.P.2019.1080p.AMZN.WEB-DL.DDP2.0.H.264-TEPES[EtHD] torrent
The.Dustwalker.2020.1080p.WEB-DL.H264.AC3-EVO[EtHD] torrent

ETTV Recommended UHD
Frozen.II.2019.2160p.UHD.BluRay.x265-TERMiNAL torrent
Rogue.One.A.Star Wars Story 2016.4K.HDR.2160p.WEBDL Ita Eng x265-NAHOM torrent
Abominable.2019.4K.HDR.2160p.BDRip Ita Eng x265-NAHOM torrent
Star.Wars.The.Last.Jedi.2017.BDRip.UHD.HDR.Eng.Spa.TrueHD.ETRG torrent

ETTV Recommended Cam
Fantasy Island 2020 HDCAM x264-ETRG torrent
The Photograph 2020 720p HDCAM-C1NEM4 torrent
Emma 2020 720p HDCAM-C1NEM4 torrent
Sonic the Hedgehog.2020.READNFO.HDCAM.x264-ETRG torrent

ETTV Recommended Foreign
The Last Full Measure (2019) BRRip 720p [Hindi-Dub] Dual-Audio x264 - 1XCinema torrent
Sacrifice (2020) HDRip 720p [Hindi-Dub] Dual-Audio x264 - 1XCinema torrent
Valhalla.2019.NORDiC.1080p.WEB-DL.H.264-RAPiDCOWS[EtHD] torrent
Liberation.2019.HDRip.1080p.x264.AAC.Mandarin.HC.CHI-ENG.Mp4Ba torrent


Download Torrent "IMAX.Space.Station.2002.DOCU.2160p.UHD.BluRay.X265.10bit.HDR.DTS-X.5.1-Just..."

IMDB Details
Description:

N/A

Genre:

N/A

Download Torrent (Magnet)
Download Torrent (File)
Seeds: 354
Leechers: 144
Completed: 7,025 
Last Checked: 04-11-2019 20:07:46


Loading...
Details
Title:IMAX.Space.Station.2002.DOCU.2160p.UHD.BluRay.X265.10bit.HDR.DTS-X.5.1-Just...
Description:




Video
ID : 1
Format : HEVC
Format/Info : High Efficiency Video Coding
Format profile : Main [email protected]@High
HDR format : SMPTE ST 2086, HDR10 compatible
Codec ID : V_MPEGH/ISO/HEVC
Duration : 47 min 15 s
Bit rate : 16.0 Mb/s
Width : 3 840 pixels
Height : 2 160 pixels
Display aspect ratio : 16:9
Frame rate mode : Constant
Frame rate : 23.976 (24000/1001) FPS
Color space : YUV
Chroma subsampling : 4:2:0 (Type 2)
Bit depth : 10 bits
Bits/(Pixel*Frame) : 0.080
Stream size : 5.28 GiB (70%)
Writing library : x265 3.1+4-4f6dde51a5db:[Windows][GCC 6.3.0][64 bit] 10bit
Encoding settings : cpuid=1049583 / frame-threads=6 / numa-pools=32 / wpp / no-pmode / no-pme / no-psnr / no-ssim / log-level=2 / input-csp=1 / input-res=3840x2160 / interlace=0 / total-frames=67975 / level-idc=51 / high-tier=1 / uhd-bd=0 / ref=4 / no-allow-non-conformance / repeat-headers / annexb / aud / hrd / info / hash=0 / no-temporal-layers / no-open-gop / min-keyint=24 / keyint=240 / gop-lookahead=0 / bframes=4 / b-adapt=2 / b-pyramid / bframe-bias=0 / rc-lookahead=25 / lookahead-slices=4 / scenecut=40 / radl=0 / no-splice / no-intra-refresh / ctu=64 / min-cu-size=8 / rect / no-amp / max-tu-size=32 / tu-inter-depth=1 / tu-intra-depth=1 / limit-tu=0 / rdoq-level=2 / dynamic-rd=0.00 / no-ssim-rd / signhide / no-tskip / nr-intra=0 / nr-inter=0 / no-constrained-intra / no-strong-intra-smoothing / max-merge=3 / limit-refs=3 / limit-modes / me=3 / subme=3 / merange=57 / temporal-mvp / weightp / no-weightb / no-analyze-src-pics / deblock=-3:-3 / no-sao / no-sao-non-deblock / rd=4 / no-early-skip / rskip / no-fast-intra / no-tskip-fast / no-cu-lossless / no-b-intra / no-splitrd-skip / rdpenalty=0 / psy-rd=2.00 / psy-rdoq=1.00 / no-rd-refine / no-lossless / cbqpoffs=0 / crqpoffs=0 / rc=crf / crf=17.0 / qcomp=0.60 / qpstep=4 / stats-write=0 / stats-read=0 / vbv-maxrate=160000 / vbv-bufsize=160000 / vbv-init=0.9 / crf-max=0.0 / crf-min=0.0 / ipratio=1.40 / pbratio=1.30 / aq-mode=2 / aq-strength=1.00 / cutree / zone-count=0 / no-strict-cbr / qg-size=32 / no-rc-grain / qpmax=69 / qpmin=0 / no-const-vbv / sar=1 / overscan=0 / videoformat=5 / range=0 / colorprim=9 / transfer=16 / colormatrix=9 / chromaloc=1 / chromaloc-top=2 / chromaloc-bottom=2 / display-window=0 / master-display=G(13250,34500)B(7500,3000)R(34000,16000)WP(15635,16450)L(10000000,50)cll=1000,300 / min-luma=0 / max-luma=1023 / log2-max-poc-lsb=8 / vui-timing-info / vui-hrd-info / slices=1 / no-opt-qp-pps / no-opt-ref-list-length-pps / no-multi-pass-opt-rps / scenecut-bias=0.05 / no-opt-cu-delta-qp / no-aq-motion / hdr / hdr-opt / no-dhdr10-opt / no-idr-recovery-sei / analysis-reuse-level=5 / scale-factor=0 / refine-intra=0 / refine-inter=0 / refine-mv=0 / refine-ctu-distortion=0 / no-limit-sao / ctu-info=0 / no-lowpass-dct / refine-analysis-type=0 / copy-pic=1 / max-ausize-factor=1.0 / no-dynamic-refine / no-single-sei / no-hevc-aq / no-svt / no-field / qp-adaptation-range=1.00
Default : Yes
Forced : No
Color range : Limited
Color primaries : BT.2020
Transfer characteristics : PQ
Matrix coefficients : BT.2020 non-constant
Mastering display color primaries : Display P3
Mastering display luminance : min: 0.0050 cd/m2, max: 1000 cd/m2
Maximum Content Light Level : 1000 cd/m2
Maximum Frame-Average Light Level : 300 cd/m2

Audio #1
ID : 2
Format : DTS XLL
Format/Info : Digital Theater Systems
Commercial name : DTS-HD Master Audio
Codec ID : A_DTS
Duration : 47 min 10 s
Bit rate mode : Variable
Bit rate : 4 725 kb/s
Channel(s) : 6 channels
Channel layout : C L R Ls Rs LFE
Sampling rate : 48.0 kHz
Frame rate : 93.750 FPS (512 SPF)
Bit depth : 24 bits
Compression mode : Lossless
Stream size : 1.56 GiB (21%)
Title : Surround 5.1
Language : English
Default : Yes
Forced : No

Audio #2
ID : 3
Format : DTS XLL
Format/Info : Digital Theater Systems
Commercial name : DTS-HD Master Audio
Codec ID : A_DTS
Duration : 47 min 10 s
Bit rate mode : Variable
Bit rate : 1 993 kb/s
Channel(s) : 2 channels
Channel layout : L R
Sampling rate : 48.0 kHz
Frame rate : 93.750 FPS (512 SPF)
Bit depth : 24 bits
Compression mode : Lossless
Stream size : 673 MiB (9%)
Title : Stereo
Language : English
Default : No
Forced : No

Text #1
ID : 4
Format : PGS
Muxing mode : zlib
Codec ID : S_HDMV/PGS
Codec ID/Info : Picture based subtitle format used on BDs/HD-DVDs
Duration : 45 min 24 s
Bit rate : 64.2 kb/s
Count of elements : 1546
Stream size : 20.9 MiB (0%)
Language : English
Default : No
Forced : No

Text #2
ID : 5
Format : PGS
Muxing mode : zlib
Codec ID : S_HDMV/PGS
Codec ID/Info : Picture based subtitle format used on BDs/HD-DVDs
Duration : 43 min 26 s
Bit rate : 67.7 kb/s
Count of elements : 1466
Stream size : 21.0 MiB (0%)
Language : French
Default : No
Forced : No

Text #3
ID : 6
Format : PGS
Muxing mode : zlib
Codec ID : S_HDMV/PGS
Codec ID/Info : Picture based subtitle format used on BDs/HD-DVDs
Duration : 43 min 26 s
Bit rate : 69.2 kb/s
Count of elements : 1548
Stream size : 21.5 MiB (0%)
Language : Spanish
Default : No
Forced : No

Text #4
ID : 7
Format : PGS
Muxing mode : zlib
Codec ID : S_HDMV/PGS
Codec ID/Info : Picture based subtitle format used on BDs/HD-DVDs
Duration : 44 min 58 s
Bit rate : 69.9 kb/s
Count of elements : 1530
Stream size : 22.5 MiB (0%)
Language : German
Default : No
Forced : No

Menu
00:00:00.000 : en:Chapter 01
00:06:34.644 : en:Chapter 02
00:14:41.005 : en:Chapter 03
00:23:25.862 : en:Chapter 04
00:29:30.268 : en:Chapter 05
00:45:22.052 : en:Chapter 06
00:47:11.036 : en:Chapter 07
Category:Movies > UltraHD/4K
Lang:English  English
Total Size:7.57 GB
Info Hash:e63c9ed55efef847c0cdb63898a0463f0eb52733
Added By:FreeExchange
Date Added:04-11-2019 20:07:44

  

Files

File List: 
 File Size
IMAX.Space.Station.2002.2160p.UHD.BluRay.x265-JustWatch.mkv7.52 GB
imax.space.station.2002.2160p.uhd.bluray.x265-justwatch.nfo217.00 B
RARBG.txt31.00 B
Sample/imax.space.station.2002.2160p.uhd.bluray.x265-justwatch.sample.mkv53 MB



Loading...
Comments

There are currently no comments. Be the first one to write something !