rick and morty s04e04 supergirl madam secretary S06E10 ettv the rookie terminator dark fate 2019 Ray Donovan watchmen angel has fallen 2019 0 frozen 2 shameless s10e05 ad astra 2019 vikings etmovies the blacklist s07e09 gemini man 2019 Mr Robot arrow His Dark Materials s01e06 queen slim 2019 The Flash star wars the walking dead doctor sleep 2019 see Supergirl s05e09 mr robot s04e10 see s01e08 Hustlers 2019 Ncis 21 bridges 2019 ethd ad astra ford v ferrari 2019 evo shameless ncis los angeles s11e11 rq.mp4 joker jumanji the next level 2019 the morning show etrg watchmen s01e08 xxx joker 2019 hindi rambo last blood 2019 ddr yts the mandalorian s01e05 His Dark Materials the mandalorian mandalorian silicon valley S06E07 christmas fast furious presents hobbs shaw 2019 frozen ii 2019 batwoman s01e09 once upon a time in hollywood 2019 madam secretary knives out 2019 midway 2019 rick morty ray donovan s07e04 zombieland double tap 2019 the rookie s02e10 the irishman 2019 doctor sleep Silicon Valley rick and morty batwoman 
Warning! Use a V.P.N When Downloading Torrents!
Your IP Address is 3.229.122.219. Location is United States
Your Internet Provider is tracking your torrent activity! Hide your IP ADDRESS with a V.P.N!
We strongly recommend using ExpressV.P.N to anonymize your torrenting. 30 Day Money Back Guarantee!
Try it Now!
ETTV Recommended TV Shows
Seven Worlds One Planet S01 2019.UHD.BluRay.2160p.HDR.Atmos.7.1.HEVC-DDR torrent
Batwoman.S01E09.HDTV.x264-SVA[ettv] torrent
The.Conners.S02E09.HDTV.x264-SVA[ettv] torrent
The.Neighborhood.S02E10.HDTV.x264-SVA[ettv] torrent
Black.Lightning.S03E09.HDTV.x264-SVA[ettv] torrent
All.Rise.S01E10.HDTV.x264-SVA[ettv] torrent

ETTV Recommended SD
The.Man.in.The.Trunk.2019.BRRip.XviD.AC3-EVO torrent
Doctor.Sleep.2019.HC.HDRip.XviD.AC3-EVO[EtMovies] torrent
A.Rainy.Day.in.New.York.2019.BDRip.x264-ROVERS[EtMovies] torrent
Queen.Marie.of.Romania.2019.HDRip.XviD.AC3-EVO torrent

ETTV Recommended HD
Grounded for Christmas 2019 Lifetime 720p Web X264 Solar torrent
A.Brothers.Honor.2019.1080p.AMZN.WEB-DL.DDP2.0.H.264-deeplife[EtHD] torrent
A.Rainy.Day.in.New.York.2019.1080p.BluRay.x264-ROVERS[EtHD] torrent
Turkey.Drop.2019.1080p.HULU.WEB-DL.DDP5.1.H.264-KamiKaze[EtHD] torrent

ETTV Recommended UHD
Ad.Astra.2019.UHD.BluRay.2160p.HDR.TrueHD.Atmos.7.1.HEVC.DDR torrent
Abominable.2019.UHD.BluRay.2160p.HDR.TrueHD.Atmos.7.1.HEVC-DDR torrent
Rambo Last Blood.2019.MULTi.UHD.BluRay.2160p.HDR.Atmos.7.1.HEVC-DDR torrent
Wonder.Women.2017.BDRip.2160p.UHD.HDR.Multilang.TrueHD.DD5.1.Gerald torrent

ETTV Recommended Cam
Dark Waters 2019 HDCAM x264-ETRG torrent
Blue Story 2019 HDCAM x264 AC3-ETRG torrent
Jay and Silent Bob Reboot 2019 HDCAM x264-ETRG torrent
Jumanji.The.Next.Level.2019.NEW.HDCAM.x264.AC3-ETRG torrent

ETTV Recommended Foreign
Saaho.2019.1080p.HEVC.NF.WEB-DL.DD+5.1.h265-Telly torrent
Ready or Not 2019 BluRay Dual Audio [Hindi 5.1 + English 5.1] 720p x264 AAC ESub - mkvCinemas [Telly] torrent
2 Lava 2 Lantula! (2016) x264 720p UNCUT BluRay Eng Subs {Dual Audio} [Hindi ORG DD 2.0 + English 2.0] Exclusive By DREDD torrent
Laal Kaptaan (2019) Hindi 720p HDRip x264 AAC ESubs - Downloadhub torrent


Download Torrent "Jind Jaan 2019 x264 720p SD Punjabi GOPISAHI"

IMDB Details
Description:

Jind Jaan follows a young woman who has to marry a man in order to claim her inheritance.

Genre:

Drama

Download Torrent (Magnet)
Download Torrent (File)
Seeds: 821
Leechers: 604
Completed: 2,056 
Last Checked: 19-11-2019 13:08:08


Loading...
Details
Title:Jind Jaan 2019 x264 720p SD Punjabi GOPISAHI
Description:
https://www.gopisahi.in/



Jind Jaan 2019 x264 720p SD Punjabi GOPISAHI

Format                         : Matroska
Format version                 : Version 4
File size                      : 731 MiB
Duration                       : 1 h 42 min
Overall bit rate               : 997 kb/s
Movie name                     : Jind Jaan 2019 GOPISAHI

Video
Format                         : AVC
Format/Info                    : Advanced Video Codec
Format profile                 : [email protected]
Format settings                : CABAC / 9 Ref Frames
Format settings, CABAC         : Yes
Format settings, Reference fra : 9 frames
Codec ID                       : V_MPEG4/ISO/AVC
Duration                       : 1 h 42 min
Bit rate                       : 899 kb/s
Width                          : 1 280 pixels
Height                         : 716 pixels
Display aspect ratio           : 16:9
Frame rate mode                : Constant
Frame rate                     : 25.000 FPS
Color space                    : YUV
Chroma subsampling             : 4:2:0
Bit depth                      : 8 bits
Scan type                      : Progressive
Bits/(Pixel*Frame)             : 0.039
Stream size                    : 659 MiB (90%)
Title                          : GOPISAHI
Writing library                : x264 core 157 r2935 545de2f

Audio
Format                         : AAC LC
Format/Info                    : Advanced Audio Codec Low Complexity
Codec ID                       : A_AAC-2
Duration                       : 1 h 42 min
Bit rate                       : 96.0 kb/s
Channel(s)                     : 2 channels
Channel layout                 : L R
Sampling rate                  : 48.0 kHz
Frame rate                     : 46.875 FPS (1024 SPF)
Compression mode               : Lossy
Delay relative to video        : -5 ms
Stream size                    : 70.7 MiB (10%)
Title                          : GOPISAHI
Language                       : Panjabi






Category:Movies > Bollywood
Lang:Punjabi  Punjabi
Total Size:731 MB
Info Hash:2b943580990ffd0f5aba4c7b4d3ce19562a0234a
Added By:GOPISAHI
Date Added:19-11-2019 13:08:05

  

Files

File List: 
 File Size
Jind Jaan 2019 x264 720p SD Punjabi GOPISAHI.mkv731 MB



Loading...
Comments

There are currently no comments. Be the first one to write something !