supernatural s15e07 Marriage Story ad astra 2019 The Morning Show evo the mandalorian S01E05 etmovies vikings s06e02 The Mandalorian terminator dark fate 2019 ethd reprisal  mandalorian servant his dark materials ddr ad astra rick and morty young sheldon s03e09 proper yts seal team  vikings s06e01 Rick and Morty S04E04 titans Evil v wars queen slim 2019 jumanji the next level 2019 21 bridges 2019 ettv rambo last blood 2019 mr robot joker vikings see s01e08 watchmen rq.mp4 wwe angel has fallen 2019 ford v ferrari 2019 Mandalorian S01E05 Batwoman the irishman 2019 the flash supergirl south park hustlers 2019 legacies s02e07 the walking dead Silicon Valley frozen ii 2019 xxx gemini man 2019 arrow etrg treadstone legacies young sheldon Christmas  knives out 2019 joker 2019 the mandalorian s01e04 hindi For All Mankind the irishman Evil S01E09 harley quinn supernatural see 
Warning! Use a V.P.N When Downloading Torrents!
Your IP Address is 18.207.255.49. Location is United States
Your Internet Provider is tracking your torrent activity! Hide your IP ADDRESS with a V.P.N!
We strongly recommend using ExpressV.P.N to anonymize your torrenting. 30 Day Money Back Guarantee!
Try it Now!
ETTV Recommended TV Shows
Hawaii.Five-0.2010.S10E10.HDTV.x264-SVA[ettv] torrent
Blue.Bloods.S10E10.HDTV.x264-SVA[ettv] torrent
The.Blacklist.S07E09.WEB.h264-TRUMP[ettv] torrent
WWE Friday Night SmackDown 2019 12 06 HDTV x264-NWCHD [TJET] torrent

ETTV Recommended SD
Downton Abbey.2019.BRRip.XviD.AC3-EVO[EtMovies] torrent
The.Dunes.2019.HDRip.XviD.AC3-EVO torrent
The.Operative.2019.BRRip.XviD.AC3-EVO torrent
The.Man.in.The.Trunk.2019.BRRip.XviD.AC3-EVO torrent

ETTV Recommended HD
Little.Joe.2019.1080p.AMZN.WEB-DL.DDP5.1.H.264-NTG[EtHD] torrent
Dark.Light.2019.1080p.AMZN.WEB-DL.DDP5.1.H.264-NTG[EtHD] torrent
Baywatch.2017.BDRip.1080p.x264.Multilang.TrueHD.DD5.1.Gerald torrent
Bottom of the 9th.2019.720p.WEB-DL.x264.AAC-ETRG torrent

ETTV Recommended UHD
Star Wars Episode IV - A New Hope 1977.MULTi.UHD.2160p.HDR.WEB-Rip.DTS-HDMA.6.1.HEVC-DDR torrent
Star Wars Episode V - The Empire Strikes Back 1980.MULTi.UHD.2160p.HDR.WEB-Rip.DTS-HDMA.6.1.HEVC-DDR torrent
Star Wars Episode III - Revenge of the Sith 2005.MULTi.UHD.2160p.HDR.WEB-Rip.DTS-HDMA.6.1.HEVC-DDR torrent
Star Wars Episode VI - Return of the Jedi 1983.MULTi.UHD.2160p.HDR.WEB-Rip.DTS-HDMA.6.1.HEVC-DDR torrent

ETTV Recommended Cam
Dark Waters 2019 HDCAM x264-ETRG torrent
Blue Story 2019 HDCAM x264 AC3-ETRG torrent
Jay and Silent Bob Reboot 2019 HDCAM x264-ETRG torrent
Jumanji - The Next Level (2019) 720p HDCAM HQMic - GETB8 [MOVCR] torrent

ETTV Recommended Foreign
Kala Shah Kala 2019 Punjabi 720p WEBRip x264 AAC - LOKiHD - Telly torrent
A Christmas Prince The Royal Baby 2019 WebRip Dual Audio [Hindi 5.1 + English 5.1] 720p x264 AAC ESub - mkvCinemas [Telly] torrent
Panipat (2019) Hindi 720p PreDVD Rip x264 AAC 1.2GB CineVood Exclusive torrent
Til Death Do Us Part (2017) x264 720p WEB-DL Eng Subs {Dual Audio} [Hindi ORG DD 2.0 + English 2.0] Exclusive By DREDD torrent


Download Torrent "See (2019) S01E06 Silk (1080p ATVP Webrip x265 10bit EAC3 5.1 - Goki).mkv"

IMDB Details
Description:

Far in a dystopian future, the human race has lost the sense of sight, and society has had to find new ways to interact, build, hunt, and to survive. All of that is challenged when a set of twins is born with sight.

Genre:

Drama, Sci-Fi

Download Torrent (Magnet)
Download Torrent (File)
Seeds: 414
Leechers: 746
Completed: 733 
Last Checked: 22-11-2019 13:06:01


Loading...
Details
Title:See (2019) S01E06 Silk (1080p ATVP Webrip x265 10bit EAC3 5.1 - Goki).mkv
Description:




Media Information

Unique ID                                : 241913321875993214520772832131133197968 (0xB5FECFA14829D134D8F7FC6D5D13CE90)
Complete name                            : See (2019) S01E06 Silk (1080p ATVP Webrip x265 10bit EAC3 5.1 - Goki).mkv
Format                                   : Matroska
Format version                           : Version 4
File size                                : 1.37 GiB
Duration                                 : 54 min 24 s
Overall bit rate                         : 3 602 kb/s
Movie name                               : See (2019) S01E06 Silk (1080p ATVP Webrip x265 10bit EAC3 5.1 - Goki).mkv
Encoded date                             : UTC 2019-11-22 12:20:48
Writing application                      : mkvmerge v28.2.0 ('The Awakening') 64-bit
Writing library                          : libebml v1.3.6 + libmatroska v1.4.9

Video
ID                                       : 1
Format                                   : HEVC
Format/Info                              : High Efficiency Video Coding
Format profile                           : Main [email protected]@Main
Codec ID                                 : V_MPEGH/ISO/HEVC
Duration                                 : 54 min 24 s
Bit rate                                 : 2 832 kb/s
Width                                    : 1 920 pixels
Height                                   : 910 pixels
Display aspect ratio                     : 2.110
Frame rate mode                          : Constant
Frame rate                               : 23.976 (24000/1001) FPS
Color space                              : YUV
Chroma subsampling                       : 4:2:0
Bit depth                                : 10 bits
Bits/(Pixel*Frame)                       : 0.068
Stream size                              : 1.08 GiB (79%)
Writing library                          : x265 2.9+8-27d8424c799d:[Windows][MSVC 1915][64 bit] 10bit
Encoding settings                        : cpuid=1111039 / frame-threads=2 / numa-pools=6 / wpp / no-pmode / no-pme / no-psnr / no-ssim / log-level=2 / input-csp=1 / input-res=1920x910 / interlace=0 / total-frames=0 / level-idc=0 / high-tier=1 / uhd-bd=0 / ref=4 / no-allow-non-conformance / no-repeat-headers / annexb / no-aud / no-hrd / info / hash=0 / no-temporal-layers / open-gop / min-keyint=23 / keyint=250 / gop-lookahead=0 / bframes=8 / b-adapt=2 / b-pyramid / bframe-bias=0 / rc-lookahead=100 / lookahead-slices=4 / scenecut=40 / radl=0 / no-intra-refresh / ctu=64 / min-cu-size=8 / no-rect / no-amp / max-tu-size=32 / tu-inter-depth=1 / tu-intra-depth=1 / limit-tu=0 / rdoq-level=2 / dynamic-rd=0.00 / no-ssim-rd / signhide / no-tskip / nr-intra=0 / nr-inter=0 / no-constrained-intra / no-strong-intra-smoothing / max-merge=3 / limit-refs=3 / limit-modes / me=3 / subme=5 / merange=57 / temporal-mvp / weightp / no-weightb / no-analyze-src-pics / deblock=0:0 / sao / no-sao-non-deblock / rd=4 / no-early-skip / rskip / no-fast-intra / no-tskip-fast / no-cu-lossless / no-b-intra / no-splitrd-skip / rdpenalty=0 / psy-rd=1.30 / psy-rdoq=2.00 / no-rd-refine / no-lossless / cbqpoffs=0 / crqpoffs=0 / rc=crf / crf=20.0 / qcomp=0.60 / qpstep=4 / stats-write=0 / stats-read=0 / ipratio=1.40 / pbratio=1.30 / aq-mode=2 / aq-strength=1.10 / cutree / zone-count=0 / no-strict-cbr / qg-size=32 / no-rc-grain / qpmax=69 / qpmin=0 / no-const-vbv / sar=1 / overscan=0 / videoformat=5 / range=0 / colorprim=2 / transfer=2 / colormatrix=2 / chromaloc=0 / display-window=0 / max-cll=0,0 / min-luma=0 / max-luma=1023 / log2-max-poc-lsb=8 / vui-timing-info / vui-hrd-info / slices=1 / no-opt-qp-pps / no-opt-ref-list-length-pps / no-multi-pass-opt-rps / scenecut-bias=0.05 / no-opt-cu-delta-qp / no-aq-motion / no-hdr / no-hdr-opt / no-dhdr10-opt / no-idr-recovery-sei / analysis-reuse-level=5 / scale-factor=0 / refine-intra=0 / refine-inter=0 / refine-mv=0 / no-limit-sao / ctu-info=0 / no-lowpass-dct / refine-mv-type=0 / copy-pic=1 / max-ausize-factor=1.0 / no-dynamic-refine / no-single-sei
Language                                 : English
Default                                  : Yes
Forced                                   : No

Audio
ID                                       : 2
Format                                   : E-AC-3 JOC
Format/Info                              : Enhanced AC-3 with Joint Object Coding
Commercial name                          : Dolby Digital Plus with Dolby Atmos
Codec ID                                 : A_EAC3
Duration                                 : 54 min 24 s
Bit rate mode                            : Constant
Bit rate                                 : 768 kb/s
Channel(s)                               : 6 channels
Channel layout                           : L R C LFE Ls Rs
Sampling rate                            : 48.0 kHz
Frame rate                               : 31.250 FPS (1536 SPF)
Compression mode                         : Lossy
Stream size                              : 299 MiB (21%)
Language                                 : English
Service kind                             : Complete Main
Default                                  : Yes
Forced                                   : No
Complexity index                         : 16
Number of dynamic objects                : 15
Bed channel count                        : 1 channel
Bed channel configuration                : LFE

Text #1
ID                                       : 3
Format                                   : UTF-8
Codec ID                                 : S_TEXT/UTF8
Codec ID/Info                            : UTF-8 Plain Text
Duration                                 : 52 min 11 s
Bit rate                                 : 48 b/s
Count of elements                        : 573
Stream size                              : 18.6 KiB (0%)
Language                                 : English
Default                                  : No
Forced                                   : No

Text #2
ID                                       : 4
Format                                   : UTF-8
Codec ID                                 : S_TEXT/UTF8
Codec ID/Info                            : UTF-8 Plain Text
Duration                                 : 53 min 0 s
Bit rate                                 : 53 b/s
Count of elements                        : 762
Stream size                              : 20.7 KiB (0%)
Language                                 : English
Default                                  : No
Forced                                   : No

Text #3
ID                                       : 5
Format                                   : UTF-8
Codec ID                                 : S_TEXT/UTF8
Codec ID/Info                            : UTF-8 Plain Text
Duration                                 : 53 min 9 s
Bit rate                                 : 53 b/s
Count of elements                        : 590
Stream size                              : 20.9 KiB (0%)
Language                                 : German
Default                                  : No
Forced                                   : No

Text #4
ID                                       : 6
Format                                   : UTF-8
Codec ID                                 : S_TEXT/UTF8
Codec ID/Info                            : UTF-8 Plain Text
Duration                                 : 52 min 44 s
Bit rate                                 : 46 b/s
Count of elements                        : 563
Stream size                              : 18.1 KiB (0%)
Language                                 : Spanish
Default                                  : No
Forced                                   : No

Text #5
ID                                       : 7
Format                                   : UTF-8
Codec ID                                 : S_TEXT/UTF8
Codec ID/Info                            : UTF-8 Plain Text
Duration                                 : 52 min 15 s
Bit rate                                 : 48 b/s
Count of elements                        : 608
Stream size                              : 18.5 KiB (0%)
Language                                 : French
Default                                  : No
Forced                                   : No

Text #6
ID                                       : 8
Format                                   : UTF-8
Codec ID                                 : S_TEXT/UTF8
Codec ID/Info                            : UTF-8 Plain Text
Duration                                 : 52 min 44 s
Bit rate                                 : 50 b/s
Count of elements                        : 621
Stream size                              : 19.4 KiB (0%)
Language                                 : Italian
Default                                  : No
Forced                                   : No

Source
1080p ATVP WEB-DL METCON
255334948235987328886356427380377106669 (0xC017B8E666679CA36F604FA0A7B1B8ED)

.........................................................................................................................................

Category:TV > HEVC/x265
Lang:English  English
Total Size:1.37 GB
Info Hash:63f285ae7122a84df579bae23da5064c904fc355
Added By:Goki
Date Added:22-11-2019 13:05:59

  

Files

File List: 
 File Size
See (2019) S01E06 Silk (1080p ATVP Webrip x265 10bit EAC3 5.1 - Goki).mkv1.37 GB



Loading...
Comments

There are currently no comments. Be the first one to write something !