zombieland double tap 2019 code 8 runaways hindi wwe rq.mp4 the morning show 0 gemini man 2019 UFC 245 supergirl hustlers 2019 silicon valley harley quinn The Grand Tour s04e01 6 Underground evo The Mandalorian s01e05 ad astra joker yts queen slim 2019 knives out 2019 vikings ufc ddr the expanse the mandalorian See south park frozen ii 2019 the blacklist His Dark Materials shameless etmovies rick and morty Arrow ad astra 2019 The Flash s00e05 Star Trek Discovery s00e09 Supernatural xxx code 8 2019 the grand tour the irishman 2019 jumanji the next level 2019 black christmas 2019 joker 2019 Batwoman ford v ferrari 2019 mandalorian s01e06 the flash terminator dark fate 2019 gold rush Star wars ethd the blacklist s07e10 6 underground 2019 Mandalorian Watchmen angel has fallen 2019 expanse 21 bridges 2019 ettv the mandalorian s01e06 rambo last blood 2019 once upon a time in hollywood 2019 etrg ray donovan Star Trek Discovery s00e10 arrow español 
Warning! Use a V.P.N When Downloading Torrents!
Your IP Address is 3.233.224.8. Location is United States
Your Internet Provider is tracking your torrent activity! Hide your IP ADDRESS with a V.P.N!
We strongly recommend using ExpressV.P.N to anonymize your torrenting. 30 Day Money Back Guarantee!
Try it Now!
ETTV Recommended TV Shows
Shameless.US.S10E06.WEB.h264-TBS[ettv] torrent
Ray.Donovan.S07E05.WEB.h264-TBS[ettv] torrent
The Mandalorian S01E06.4K.HDR.2160p.WEBDL Ita Eng x265-NAHOM torrent
UFC.245.PPV.HDTV.x264-VERUM[ettv] torrent

ETTV Recommended SD
6.Underground.2019.HDRip.XviD.AC3-EVO[EtMovies] torrent
Brexit.2019.BDRip.XviD.AC3-EVO[EtMovies] torrent
Use.Me.2019.HDRip.XviD.AC3-EVO[EtMovies] torrent
Spider in the Web.2019.BDRip.XviD.AC3-EVO[EtMovies] torrent

ETTV Recommended HD
The.Parts.You.Lose.2019.1080p.BluRay.DTS-HDMA.5.1.HEVC-DDR[EtHD] torrent
Running.with.the.Devil.2019.1080p.BluRay.DTS-HDMA.5.1.HEVC-DDR[EtHD] torrent
Spider in the Web 2019.1080p.Blu-ray.DTS-HDMA.5.1.HEVC-DDR[EtHD] torrent
I.Am.Another.You.2017.1080p.BluRay.x264-BiPOLAR[EtHD] torrent

ETTV Recommended UHD
Ready.Player.One.2018.BDRip.2160p.UHD.HDR.Multilang.DTS.DD5.1.Gerald torrent
It.Chapter.Two.2019.4K.HDR.2160p.BDRip Ita Eng x265-NAHOM torrent
War 2019.MULTi.UHD.4K.SDR.TrueHD.7.1.HEVC-DDR torrent
The Report 2019.UHD.2160p.HDR.WEBRip.DDP.5.1.HEVC-DDR torrent

ETTV Recommended Cam
Dark Waters 2019 HDCAM x264-ETRG torrent
Jay and Silent Bob Reboot 2019 HDCAM x264-ETRG torrent
Jumanji.The.Next.Level.2019.NEW.HDCAM.x264.AC3-ETRG torrent
Black Christmas 2019 720p HDCAM-GETB8 torrent

ETTV Recommended Foreign
Geetha Govindam (2018) x264 720p UNCUT WEBRiP Eng Susb {Dual Audio} [Hindi ORG DD 2.0 + Telugu 2.0] Exclusive By DREDD torrent
Arjun Reddy (2017) x264 720p UNCUT WEB-DL Eng Subs {Dual Audio} [Hindi ORG DD 2.0 + Telugu 2.0] Exclusive By DREDD torrent
Late Night 2019 BluRay Dual Audio [Hindi 5.1 + English 5.1] 720p x264 AAC ESub - mkvCinemas [Telly] torrent
Kitty Party (2019) Punjabi 720p PreDVD Rip x264 AAC 1.2GB NO LOGO CineVood Exclusive torrent


Download Torrent "Mahi Nri 2017 x264 720p HD Esub Punjabi GOPISAHI"

IMDB Details
Description:

Set primarily in the UK's second largest city Birmingham, Mera Mahi NRI (My Beloved Non-Resident Indian) is a realistic multi- cultural comedy drama that follows the life of a student '...

Genre:

Comedy, Drama

Download Torrent (Magnet)
Download Torrent (File)
Seeds: 86
Leechers: 189
Completed: 174 
Last Checked: 03-12-2019 05:04:03


Loading...
Details
Title:Mahi Nri 2017 x264 720p HD Esub Punjabi GOPISAHI
Description:
https://www.gopisahi.in/



Mahi Nri 2017 x264 720p HD Esub Punjabi GOPISAHI

Format                         : Matroska
Format version                 : Version 4
File size                      : 959 MiB
Duration                       : 2 h 14 min
Overall bit rate               : 998 kb/s
Movie name                     : MAHI NRI 2017 GOPISAHI

Video
Format                         : AVC
Format/Info                    : Advanced Video Codec
Format profile                 : [email protected]
Format settings                : CABAC / 12 Ref Frames
Format settings, CABAC         : Yes
Format settings, Reference fra : 12 frames
Codec ID                       : V_MPEG4/ISO/AVC
Duration                       : 2 h 14 min
Bit rate                       : 899 kb/s
Width                          : 1 280 pixels
Height                         : 536 pixels
Display aspect ratio           : 2.40:1
Frame rate mode                : Constant
Frame rate                     : 24.000 FPS
Color space                    : YUV
Chroma subsampling             : 4:2:0
Bit depth                      : 8 bits
Scan type                      : Progressive
Bits/(Pixel*Frame)             : 0.055
Stream size                    : 864 MiB (90%)
Title                          : GOPISAHI
Writing library                : x264 core 157 r2935 545de2f

Audio
Format                         : AAC LC
Duration                       : 2 h 14 min
Bit rate                       : 96.0 kb/s
Channel(s)                     : 2 channels
Channel layout                 : L R
Sampling rate                  : 48.0 kHz
Frame rate                     : 46.875 FPS (1024 SPF)
Compression mode               : Lossy
Delay relative to video        : -21 ms
Stream size                    : 92.7 MiB (10%)
Title                          : GOPISAHI
Language                       : Panjabi

Text
Language                       : English






Category:Movies > Bollywood
Lang:Punjabi  Punjabi
Total Size:959 MB
Info Hash:7c2302ce3e5b3fa7dd2fb7293dcbfbe5ee42bf08
Added By:GOPISAHI
Date Added:03-12-2019 05:04:01

Files

File List: 
 File Size
Mahi Nri 2017 x264 720p HD Esub Punjabi GOPISAHI.mkv959 MB



Loading...
Comments

There are currently no comments. Be the first one to write something !