cold pursuit 2019 warrior captain marvel john wick hawaii five 0 s09e25 young sheldon s02e22 CHERNOBYL aladdin 2019 a madea family funeral 2019 evo little 2019 the curse of la llorona 2019 the mule 2018 glass 2019 tushyraw 1080p.mp4-ktr john wick 3 the blacklist s06e22 avengers endgame 2019 us 2019 ethd ettv brightburn 2019 0 the upside 2019 the intruder 2019 The Blacklist agents of shield hellboy 2019 the lego movie 2 the second part 2019 brooklyn nine nine game of thrones s08e04 long shot 2019 captain marvel 2019 Game of Thrones S08E05 the big bang theory s12e24 Big Bang Theory extremely wicked shockingly evil and vile 2019 how to train your dragon the hidden world 2019 spider man into the spider verse 2018 ddr etrg john wick chapter 3 – parabellum 2019 the hustle 2019 marvels agents of shield s06e02 etmovies the big bang theory s12e23 john wick 2014 hindi yts uglydolls 2019 The Flash shazam 2019 avengers infinity war 2018 Game of Thrones blacklist doom patrol s01e14 the big bang theory pet sematary 2019 what men want 2019 aquaman 2018 tushy 18.12 1080p.mp4-ktr 2.0 (2018) warrior s01e07 alita battle angel 2019 pokemon detective pikachu 2019 Avengers endgame Killing Eve fighting with my family 2019 dumbo 2019 greys anatomy s15e25 doom patrol john wick chapter 2 2017 
Warning! Use a VPN When Downloading Torrents!
Your IP Address is 54.167.47.248. Location is United States
Your Internet Provider is tracking your torrent activity! Hide your IP ADDRESS with a VPN!
We strongly recommend using ExpressVPN to anonymize your torrenting. 30 Day Money Back Guarantee!
Try it Now!
ETTV Recommended TV Shows
Warrior.S01E07.720p.WEB.h264-TBS[ettv] torrent
Dynasty.2017.S02E21.WEB.h264-TBS[ettv] torrent
Ransom.S03E12.HDTV.x264-SVA[ettv] torrent
The.Son.S02E04.WEB.h264-TBS[ettv] torrent
Marvels.Guardians.of.the.Galaxy.S03E18.WEB.x264-TBS[ettv] torrent
Deep.State.S02E01.HDTV.x264-MTB[ettv] torrent

ETTV Recommended SD
Bardo.Blues.2017.HDRip.XviD.AC3-EVO torrent
Breakneck.2019.HDRip.XviD.AC3-EVO torrent
The.Siren.2019.HDRip.XViD-ETRG torrent
Fourth Quarter.2018.HDRip.XViD-ETRG torrent

ETTV Recommended HD
Never Grow Old 2019.BluRay.1080p.HEVC.DTS-HDMA.5.1-DDR torrent
The.Brawler.2019.1080p.NF.WEB-DL.H264-ETRG[EtHD] torrent
The Siren 2019.1080p.AMZN.HDRip.DDP.2.0-DDR torrent
They Look Like People 2015.1080p.AMZN.HDRip.DDP.2.0-DDR torrent

ETTV Recommended UHD
The Bridge on The River Kwai 1957.UHD.Blu-ray.1080.HDR.Atmos.7.1-DDR torrent
Crank 2006.UHD.BluRay.2160p.HDR.HEVC.Atmos.7.1-DDR torrent
Aquaman 2018 1080p BDrip  x265 7.1 TrueHD Atmos D0ct0rLew[SEV] torrent
Field of Dreams 1989.Multi.UHD.2160p.Blu-ray.HDR.HEVC.DTS-HDMA.5.1-DDR torrent

ETTV Recommended Cam
Brightburn 2019 HDCAM x264 AC3-ETRG torrent
The Hustle 2019 HDCAM x264 AC3 ETRG torrent
Pokemon  Detective Pikachu 2019 HDCAM x264 AC3-ETRG torrent
John Wick 3 2019 HDCAM x264 -ETRG torrent

ETTV Recommended Foreign
Mon Jaane Na.2019.1080p.WEB-DL.AVC.AAC.DDR torrent
Bumblebee.(2018).[1080p].[Dual.Audio].[Org.DD].{Hindi+Eng.6Ch}.-~{DOOMSDAY}~-. torrent
The.Painted.House.aka.Chaayam.Poosiya.Veedu.2015.1080p.NF.Malayalam.WEB-DL.H264-ETRG[EtHD] torrent
Warda.2014.1080p.WEB-DL.ARABIC.ESub-ETRG[EtHD] torrent


Download Torrent "The.Hateful.Eight.2015.2160p.REMUX DCPRip.Eng -DDR.mkv"

IMDB Details
Description:

In the dead of a Wyoming winter, a bounty hunter and his prisoner find shelter in a cabin currently inhabited by a collection of nefarious characters.

Genre:

Crime | Drama | Mystery | Thriller | Western

Download Torrent (Magnet)
Download Torrent (File)
Seeds: 26
Leechers: 24
Completed: 283 
Last Checked: 04-10-2017 13:47:39


Details
Title:The.Hateful.Eight.2015.2160p.REMUX DCPRip.Eng -DDR.mkv
Description:




** Hateful Eight **

** 2015**

** 2160p UHD 4K / DCPrip / x264

English DTS-HDMA 5.1 **


** English + SHD + Russian Subtitle(s) **



[ SCREENS ]



[ Info ]

Source : DCP Rip @ UHDClub
General
Format : Matroska
File size : 38.1 GiB
Duration : 2 h 40 min
Overall bit rate : 33.9 Mb/s

Video
Format : AVC
Format/Info : Advanced Video Codec
Format profile : [email protected]
Format settings, CABAC : Yes
Format settings, ReFrames : 8 frames
Codec ID : V_MPEG4/ISO/AVC
Duration : 2 h 40 min
Bit rate : 30.3 Mb/s
Width : 3 840 pixels
Height : 1 396 pixels
Display aspect ratio : 2.751
Frame rate mode : Constant
Frame rate : 25.000 FPS
Color space : YUV
Chroma subsampling : 4:2:0
Bit depth : 8 bits
Scan type : Progressive
Bits/(Pixel*Frame) : 0.226
Stream size : 34.1 GiB (90%)
Title : The Hateful Eight (2015)
Language : English
Default : Yes
Forced : No

Audio
Format : DTS
Format/Info : Digital Theater Systems
Format profile : MA / Core
Mode : 16
Format settings, Endianness : Big
Codec ID : A_DTS
Duration : 2 h 40 min
Bit rate mode : Variable / Constant
Bit rate : 3 550 kb/s / 1 509 kb/s
Channel(s) : 6 channels
Channel positions : Front: L C R, Side: L R, LFE
Sampling rate : 48.0 kHz
Frame rate : 93.750 FPS (512 spf)
Bit depth : 24 bits
Compression mode : Lossless / Lossy
Stream size : 3.99 GiB (10%)
Title : DTS-HD MA 5.1 - Blu-ray
Language : English
Default : No
Forced : No

Chapters : YES

[ Ultra High Speed Seeding !!! ]

Category:Movies > BluRay Disc/Remux
Lang:English  English
Total Size:38.06 GB
Info Hash:819affa4490e49d4bc30699a0415fe0dc4174cb7
Added By:DDR
Date Added:04-10-2017 13:47:38

Files

File List: 
 File Size
The.Hateful.Eight.2015.2160p.REMUX DCPRip.Eng -DDR.mkv38.06 GB



Comments

There are currently no comments. Be the first one to write something !