Lincoln Rhyme Hunt for the Bone Collector S01E02 Gemini Man 2019 Dolittle 2020 curb your enthusiasm s10e01 countdown 2019 Terminator Dark Fate 2019 midway Richard Jewell 2019 Knives Out 2019 Avenue 5 hustlers 2019 Black and Blue 2019 Bad Boys for Life 2020 Bombshell 2019 parasite Batwoman s01e10 ray donovan A Fall From Grace 2020 xxx rq.mp4 9-1-1 Lone Star S01E01 The Gentlemen 2020 The New Pope Ettv vikings shameless s10e11 Harriet 2019 The Outsider Hindi Maleficent Mistress of Evil 2019 Power S06E13 Like a Boss 2020 Midway 2019 the outsider s01e01 Vikings S06E07 Ford v Ferrari 2019 Ad Astra 2019 Sex education etmovies doctor who evo Frozen II 2019 Underwater 2020 21 Bridges 2019 Joker 2019 parasite 2019 Avenue 5 S01E01 Doctor Who S12E04 Supergirl supergirl s05e10 Motherless Brooklyn 2019 Just Mercy 2019 Jumanji The Next Level 2019 The Real Housewives of Atlanta S12E12 Once Upon a Time... in Hollywood 2019 Little Women 2019 Jojo Rabbit 2019 Charlies Angels 2019 uncut gems 2019 ray donovan s07e10 dvdscr The Outsider S01E03 star wars the rise of skywalker 2019 1917 2019 zombieland double tap 2019 shameless etrg 0 ethd ddr batwoman yts 
Warning! Use a V.P.N When Downloading Torrents!
Your IP Address is 3.83.32.171. Location is United States
Your Internet Provider is tracking your torrent activity! Hide your IP ADDRESS with a V.P.N!
We strongly recommend using ExpressV.P.N to anonymize your torrenting. 30 Day Money Back Guarantee!
Try it Now!
ETTV Recommended TV Shows
9-1-1.Lone.Star.S01E02.WEB.x264-XLF[ettv] torrent
All.Rise.S01E13.WEB.x264-XLF[ettv] torrent
The.Bachelor.S24E03.WEB.H264-XLF[ettv] torrent
Black.Lightning.S03E10.WEB.H264-XLF[ettv] torrent

ETTV Recommended SD
Doctor.Sleep.2019.DC.HDRip.XviD.AC3-EVO torrent
Kindred.Spirits.2019.HDRip.XviD.AC3-EVO torrent
The.Good.Liar.2019.HDRip.XviD.AC3-EVO torrent
Playing.with.Fire.2019.HDRip.XviD.AC3-EVO torrent

ETTV Recommended HD
Playing.with.Fire.2019.720p.WEB-DL.x264.AAC-ETRG torrent
The.Good.Liar.2019.720p.WEB-DL.x264.AAC-ETRG torrent
Doctor.Sleep.2019.Directors.Cut.720p.AMZN.WEB-DL.x264-ETRG torrent
Theresa.Allison.2019.1080p.AMZN.WEB-WEB-Rip.DDP.2.0.HEVC-DDR[EtHD] torrent

ETTV Recommended UHD
Togo 2019.4K.HDR.2160p.WEBDL Sub Ita x265-NAHOM torrent
The.Witcher.S01.2160p.HDR.NF.WEBRip.DDP.Atmos.5.1.x265-TrollUHD torrent
Troop.Zero.2020.2160p.NF.WEBRip.DDP5.1.x264-AJP69 torrent
Pan's.Labyrinth.2006.4K.HDR.2160p.BDRip Ita Spa x265-NAHOM torrent

ETTV Recommended Cam
Dolittle 2020 HDCAM x264 AC3-ETRG torrent
Seberg 2019 HDCAM x264 AC3-ETRG torrent
The Grudge 2020 720p HDTC-GETB8 torrent
Bad Boys for Life 2020 HDCAM x264 AC3-ETRG torrent

ETTV Recommended Foreign
Dear Comrade 2019 Hindi 720p WEBRip AAC x264 - MoviePirate - Telly.mkv torrent
Black and Blue (2019).720p.H264.ita.eng.Ac3-5.1.sub.ita.eng-MIRCrew torrent
Motichoor.Chaknachoor.2019.1080p.NF.WEB-DL.DD+5.1.x264-Telly torrent
KD (A) Karuppudurai.2019.1080p.NF.WEB-DL.DD+5.1.x264-Telly torrent


Download Torrent "Interstellar (2014) 1080p Blu-Ray x264 DTSHD 5.1 -DDR"

IMDB Details
Description:

A team of explorers travel through a wormhole in space in an attempt to ensure humanity's survival.

Genre:

Adventure | Drama | Sci-Fi

Download Torrent (Magnet)
Download Torrent (File)
Seeds: 16
Leechers: 18
Completed: 98 
Last Checked: 04-10-2017 14:21:09


Details
Title:Interstellar (2014) 1080p Blu-Ray x264 DTSHD 5.1 -DDR
Description:



HQ 1080p Blu-Ray Rip x264

English DTSHD-MA 5.1 Audio

English/French/Spanish/Portuguese Subs

SCREENSHOTS


SPECS

Source: Blu-ray

Format : Matroska
File size : 16.2 GiB
Duration : 2 h 49 min
Overall bit rate : 13.7 Mb/s

Video
Format : AVC
Format/Info : Advanced Video Codec
Format profile : [email protected]
Format settings, CABAC : Yes
Format settings, ReFrames : 5 frames
Codec ID : V_MPEG4/ISO/AVC
Duration : 2 h 49 min
Bit rate : 10.0 Mb/s
Width : 1 920 pixels
Height : 800 pixels
Display aspect ratio : 2.40:1
Frame rate mode : Constant
Frame rate : 23.976 (24000/1001) FPS
Color space : YUV
Chroma subsampling : 4:2:0
Bit depth : 8 bits
Scan type : Progressive
Bits/(Pixel*Frame) : 0.272
Stream size : 11.8 GiB (73%)
Default : Yes
Forced : No
Color range : Limited
Color primaries : BT.709
Transfer characteristics : BT.709
Matrix coefficients : BT.709

Audio #1
Format : DTS
Format/Info : Digital Theater Systems
Format profile : MA / Core
Mode : 16
Format settings, Endianness : Big
Codec ID : A_DTS
Duration : 2 h 49 min
Bit rate mode : Variable / Constant
Bit rate : 3 693 kb/s / 1 509 kb/s
Channel(s) : 6 channels
Channel positions : Front: L C R, Side: L R, LFE
Sampling rate : 48.0 kHz
Frame rate : 93.750 FPS (512 spf)
Bit depth : 24 bits
Compression mode : Lossless / Lossy
Stream size : 4.36 GiB (27%)
Language : English
Default : Yes
Forced : No

Chapters : YES
SAMPLE Included

A DDR Exclusive Encode
Category:Movies > HD 1080p
Lang:English  English
Total Size:16.33 GB
Info Hash:2a0f760c8865c171915e4e751953d6e8253e278a
Added By:DDR
Date Added:04-10-2017 14:21:09

Files

File List: 
 File Size
A DDR Release !!!.txt287.00 B
Interstellar (2014) 1080p Blu-Ray x264 DTSHD -DDR.mkv16.24 GB
sample-Interstellar (2014) 1080p Blu-Ray x264 DTSHD -DDR.mkv95 MB
Torrent downloaded from ExtraTorrent.cc.txt28.00 B



Loading...
Comments

There are currently no comments. Be the first one to write something !