Just Mercy 2019 Frozen II 2019 vikings s06e08 The Curse of Oak Island S07E10 emergence etrg Bombshell 2019 Midway 2019 doctor sleep New Amsterdam etmovies fbi Richard Jewell 2019 new amsterdam s02e11 FBI S02E13 This Is Us S04E11 the outsider s01e01 Avenue 5 S01E01 hindi Ray Donovan S07E10 Charlies Angels 2019 bad boys for life 2020 vikings This IS Us ethd Shameless S10E11 Ford v Ferrari 2019 Power S06E13 Underwater 2020 9-1-1 Lone Star S01E02 yts A Fall From Grace 2020 Bull S04E12 evo Little Women 2019 Dolittle 2020 The Outsider S01E03 arrow the gentlemen 2020 The Resident S03E13 the outsider Knives Out 2019 0 NCIS Joker 2019 ettv the conners s02e10 rq.mp4 Parasite 2019 Arrow S08E09 doctor sleep 2019 maleficent mistress of evil 2019 Jumanji The Next Level 2019 Project Blue Book S02E01 1917 2019 dcs legends of tomorrow s05e01 gemini man 2019 Terminator Dark Fate 2019 Emergence S01E12 Prodigal Son S01E11 Jojo Rabbit 2019 ddr Manifest S02E03 Star Wars The Rise of Skywalker 2019 xxx 21 Bridges 2019 Motherless Brooklyn 2019 Legends of Tomorrow The Good Doctor S03E12 NCIS S17E13 fbi most wanted s01e03 
Warning! Use a V.P.N When Downloading Torrents!
Your IP Address is 18.232.55.175. Location is United States
Your Internet Provider is tracking your torrent activity! Hide your IP ADDRESS with a V.P.N!
We strongly recommend using ExpressV.P.N to anonymize your torrenting. 30 Day Money Back Guarantee!
Try it Now!
ETTV Recommended TV Shows
Chicago.Med.S05E12.HDTV.x264-SVA[ettv] torrent
Criminal.Minds.S15E04.HDTV.x264-SVA[ettv] torrent
Stumptown.S01E12.HDTV.x264-SVA[ettv] torrent
The.Magicians.US.S05E02.WEB.x264-XLF[ettv] torrent
Chicago.Fire.S08E12.HDTV.x264-SVA[ettv] torrent
Modern.Family.S11E12.HDTV.x264-SVA[ettv] torrent

ETTV Recommended SD
Koko.A.Red.Dog.Story.2019.HDRip.XviD.AC3-EVO torrent
Rocket.Hunter.2020.HDRip.XviD.AC3-EVO torrent
The.Knight.of.Shadows.Between.Yin.and.Yang.2019.BDRip.XviD.AC3-EVO torrent
Cats.2019.HC.HDRip.XviD.AC3-EVO torrent

ETTV Recommended HD
Rocket.Hunter.2020.1080p.WEB-DL.H264.AAC2.0-EVO[EtHD] torrent
Doctor.Sleep.2019.DC.1080p.BluRay.x264-AAA[EtHD] torrent
Boris.and.the.Bomb.2019.720p.AMZN.WEB-DL.x264.AAC-ETRG torrent
Cats.2019.HC.720p.HDRip.X264 AC3-ETRG torrent

ETTV Recommended UHD
Togo 2019.4K.HDR.2160p.WEBDL Sub Ita x265-NAHOM torrent
The.Witcher.S01.2160p.HDR.NF.WEBRip.DDP.Atmos.5.1.x265-TrollUHD torrent
Troop.Zero.2020.2160p.NF.WEBRip.DDP5.1.x264-AJP69 torrent
Pan's.Labyrinth.2006.4K.HDR.2160p.BDRip Ita Spa x265-NAHOM torrent

ETTV Recommended Cam
Dolittle 2020 HDCAM x264 AC3-ETRG torrent
Seberg 2019 HDCAM x264 AC3-ETRG torrent
The Grudge 2020 720p HDTC-GETB8 torrent
Bad Boys for Life 2020 HDCAM x264 AC3-ETRG torrent

ETTV Recommended Foreign
Yes Man (2008) - SD H264 Ita Eng Ac3 5.1 Sub Ita by Snake MIRCrew torrent
Future Justice (2014) 720p WEB-DL x264 Eng Subs [Dual Audio] [Hindi DD 2.0 - English 2.0] Exclusive By -=!Dr.STAR!=- torrent
Gumnaami (2019) Hindi 720p HDRip x264 AAC - Downloadhub torrent
Jai Mummy Di (2020) V2 Hindi 720p PreDVD x264 AAC 1.2GB NO LOGO CineVood Exclusive torrent


Download Torrent "IT.Chapter.Two.2019.MULTi.UHD.Bluray.2160p.HDR.Atmos.7.1.HEVC-DDR"

IMDB Details
Description:

Twenty-seven years after their first encounter with the terrifying Pennywise, the Losers Club have grown up and moved away, until a devastating phone call brings them back.

Genre:

Drama, Fantasy, Horror

Download Torrent (Magnet)
Download Torrent (File)
Seeds: 97
Leechers: 167
Completed: 305 
Last Checked: 08-12-2019 16:24:44


Loading...
Details
Title:IT.Chapter.Two.2019.MULTi.UHD.Bluray.2160p.HDR.Atmos.7.1.HEVC-DDR
Description:




SPECS
Format                                   : Matroska
Format version                           : Version 4
File size                                : 29.3 GiB
Duration                                 : 2 h 49 min
Overall bit rate mode                    : Variable
Overall bit rate                         : 24.8 Mb/s
Movie name                               : IT Chapter Two
Encoded date                             : UTC 2019-12-08 14:04:10
Writing application                      : mkvmerge v41.0.0 ('Smarra') 64-bit
Writing library                          : libebml v1.3.9 + libmatroska v1.5.2
Cover                                    : Yes
Attachments                              : cover.jpg

Video
ID                                       : 1
Format                                   : HEVC
Format/Info                              : High Efficiency Video Coding
Commercial name                          : HDR10
Format profile                           : Main [email protected]@High
Codec ID                                 : V_MPEGH/ISO/HEVC
Duration                                 : 2 h 49 min
Bit rate                                 : 15.9 Mb/s
Width                                    : 3 840 pixels
Height                                   : 1 608 pixels
Display aspect ratio                     : 2.40:1
Frame rate mode                          : Constant
Frame rate                               : 23.976 (24000/1001) FPS
Color space                              : YUV
Chroma subsampling                       : 4:2:0
Bit depth                                : 10 bits
Bits/(Pixel*Frame)                       : 0.107
Stream size                              : 18.8 GiB (64%)
Language                                 : English
Default                                  : Yes
Forced                                   : No
Color range                              : Limited
Color primaries                          : BT.2020
Transfer characteristics                 : PQ
Matrix coefficients                      : BT.2020 non-constant
Mastering display color primaries        : Display P3
Mastering display luminance              : min: 0.0050 cd/m2, max: 4000 cd/m2

Audio #1
ID                                       : 2
Format                                   : MLP FBA 16-ch
Format/Info                              : Meridian Lossless Packing FBA with 16-channel presentation
Commercial name                          : Dolby TrueHD with Dolby Atmos
Codec ID                                 : A_TRUEHD
Duration                                 : 2 h 49 min
Bit rate mode                            : Variable
Bit rate                                 : 3 408 kb/s
Maximum bit rate                         : 5 559 kb/s
Channel(s)                               : 8 channels
Channel layout                           : L R C LFE Ls Rs Lb Rb
Sampling rate                            : 48.0 kHz
Frame rate                               : 1 200.000 FPS (40 SPF)
Compression mode                         : Lossless
Stream size                              : 4.03 GiB (14%)
Language                                 : English
Default                                  : Yes
Forced                                   : No
Number of dynamic objects                : 15
Bed channel count                        : 1 channel
Bed channel configuration                : LFE

Audio #2
ID                                       : 3
Format                                   : AC-3
Format/Info                              : Audio Coding 3
Commercial name                          : Dolby Digital
Codec ID                                 : A_AC3
Duration                                 : 2 h 49 min
Bit rate mode                            : Constant
Bit rate                                 : 640 kb/s
Channel(s)                               : 6 channels
Channel layout                           : L R C LFE Ls Rs
Sampling rate                            : 48.0 kHz
Frame rate                               : 31.250 FPS (1536 SPF)
Bit depth                                : 16 bits
Compression mode                         : Lossy
Stream size                              : 776 MiB (3%)
Language                                 : English
Service kind                             : Complete Main
Default                                  : No
Forced                                   : No

Audio #3
ID                                       : 4
Format                                   : DTS
Format/Info                              : Digital Theater Systems
Codec ID                                 : A_DTS
Duration                                 : 2 h 49 min
Bit rate mode                            : Constant
Bit rate                                 : 1 509 kb/s
Channel(s)                               : 6 channels
Channel layout                           : C L R Ls Rs LFE
Sampling rate                            : 48.0 kHz
Frame rate                               : 93.750 FPS (512 SPF)
Bit depth                                : 24 bits
Compression mode                         : Lossy
Stream size                              : 1.79 GiB (6%)
Language                                 : Italian
Default                                  : No
Forced                                   : No

Audio #4
ID                                       : 5
Format                                   : AC-3
Format/Info                              : Audio Coding 3
Commercial name                          : Dolby Digital
Codec ID                                 : A_AC3
Duration                                 : 2 h 49 min
Bit rate mode                            : Constant
Bit rate                                 : 448 kb/s
Channel(s)                               : 6 channels
Channel layout                           : L R C LFE Ls Rs
Sampling rate                            : 48.0 kHz
Frame rate                               : 31.250 FPS (1536 SPF)
Bit depth                                : 16 bits
Compression mode                         : Lossy
Stream size                              : 543 MiB (2%)
Language                                 : French
Service kind                             : Complete Main
Default                                  : No
Forced                                   : No

Audio #5
ID                                       : 6
Format                                   : AC-3
Format/Info                              : Audio Coding 3
Commercial name                          : Dolby Digital
Codec ID                                 : A_AC3
Duration                                 : 2 h 49 min
Bit rate mode                            : Constant
Bit rate                                 : 448 kb/s
Channel(s)                               : 6 channels
Channel layout                           : L R C LFE Ls Rs
Sampling rate                            : 48.0 kHz
Frame rate                               : 31.250 FPS (1536 SPF)
Bit depth                                : 16 bits
Compression mode                         : Lossy
Stream size                              : 543 MiB (2%)
Language                                 : Spanish
Service kind                             : Complete Main
Default                                  : No
Forced                                   : No

Audio #6
ID                                       : 7
Format                                   : AC-3
Format/Info                              : Audio Coding 3
Commercial name                          : Dolby Digital
Codec ID                                 : A_AC3
Duration                                 : 2 h 49 min
Bit rate mode                            : Constant
Bit rate                                 : 448 kb/s
Channel(s)                               : 6 channels
Channel layout                           : L R C LFE Ls Rs
Sampling rate                            : 48.0 kHz
Frame rate                               : 31.250 FPS (1536 SPF)
Bit depth                                : 16 bits
Compression mode                         : Lossy
Stream size                              : 543 MiB (2%)
Language                                 : Portuguese
Service kind                             : Complete Main
Default                                  : No
Forced                                   : No

Audio #7
ID                                       : 8
Format                                   : AC-3
Format/Info                              : Audio Coding 3
Commercial name                          : Dolby Digital
Codec ID                                 : A_AC3
Duration                                 : 2 h 49 min
Bit rate mode                            : Constant
Bit rate                                 : 448 kb/s
Channel(s)                               : 6 channels
Channel layout                           : L R C LFE Ls Rs
Sampling rate                            : 48.0 kHz
Frame rate                               : 31.250 FPS (1536 SPF)
Bit depth                                : 16 bits
Compression mode                         : Lossy
Stream size                              : 543 MiB (2%)
Language                                 : Hindi
Service kind                             : Complete Main
Default                                  : No
Forced                                   : No

Audio #8
ID                                       : 9
Format                                   : AC-3
Format/Info                              : Audio Coding 3
Commercial name                          : Dolby Digital
Codec ID                                 : A_AC3
Duration                                 : 2 h 49 min
Bit rate mode                            : Constant
Bit rate                                 : 448 kb/s
Channel(s)                               : 6 channels
Channel layout                           : L R C LFE Ls Rs
Sampling rate                            : 48.0 kHz
Frame rate                               : 31.250 FPS (1536 SPF)
Bit depth                                : 16 bits
Compression mode                         : Lossy
Stream size                              : 543 MiB (2%)
Language                                 : Tamil
Service kind                             : Complete Main
Default                                  : No
Forced                                   : No

Audio #9
ID                                       : 10
Format                                   : AC-3
Format/Info                              : Audio Coding 3
Commercial name                          : Dolby Digital
Codec ID                                 : A_AC3
Duration                                 : 2 h 49 min
Bit rate mode                            : Constant
Bit rate                                 : 448 kb/s
Channel(s)                               : 6 channels
Channel layout                           : L R C LFE Ls Rs
Sampling rate                            : 48.0 kHz
Frame rate                               : 31.250 FPS (1536 SPF)
Bit depth                                : 16 bits
Compression mode                         : Lossy
Stream size                              : 543 MiB (2%)
Language                                 : Telugu
Service kind                             : Complete Main
Default                                  : No
Forced                                   : No

Audio #10
ID                                       : 11
Format                                   : AC-3
Format/Info                              : Audio Coding 3
Commercial name                          : Dolby Digital
Codec ID                                 : A_AC3
Duration                                 : 2 h 49 min
Bit rate mode                            : Constant
Bit rate                                 : 448 kb/s
Channel(s)                               : 6 channels
Channel layout                           : L R C LFE Ls Rs
Sampling rate                            : 48.0 kHz
Frame rate                               : 31.250 FPS (1536 SPF)
Bit depth                                : 16 bits
Compression mode                         : Lossy
Stream size                              : 543 MiB (2%)
Language                                 : Thai
Service kind                             : Complete Main
Default                                  : No
Forced                                   : No

Text #1
ID                                       : 12
Format                                   : PGS
Muxing mode                              : zlib
Codec ID                                 : S_HDMV/PGS
Codec ID/Info                            : Picture based subtitle format used on BDs/HD-DVDs
Duration                                 : 2 h 44 min
Bit rate                                 : 34.3 kb/s
Count of elements                        : 5486
Stream size                              : 40.4 MiB (0%)
Language                                 : English
Default                                  : Yes
Forced                                   : No

Text #2
ID                                       : 13
Format                                   : PGS
Muxing mode                              : zlib
Codec ID                                 : S_HDMV/PGS
Codec ID/Info                            : Picture based subtitle format used on BDs/HD-DVDs
Duration                                 : 2 h 48 min
Bit rate                                 : 22.0 kb/s
Count of elements                        : 3930
Stream size                              : 26.5 MiB (0%)
Language                                 : French
Default                                  : No
Forced                                   : No

Text #3
ID                                       : 14
Format                                   : PGS
Muxing mode                              : zlib
Codec ID                                 : S_HDMV/PGS
Codec ID/Info                            : Picture based subtitle format used on BDs/HD-DVDs
Duration                                 : 2 h 49 min
Bit rate                                 : 32.3 kb/s
Count of elements                        : 5586
Stream size                              : 39.1 MiB (0%)
Language                                 : Italian
Default                                  : No
Forced                                   : No

Text #4
ID                                       : 15
Format                                   : PGS
Muxing mode                              : zlib
Codec ID                                 : S_HDMV/PGS
Codec ID/Info                            : Picture based subtitle format used on BDs/HD-DVDs
Duration                                 : 2 h 48 min
Bit rate                                 : 26.1 kb/s
Count of elements                        : 4476
Stream size                              : 31.5 MiB (0%)
Language                                 : Spanish
Default                                  : No
Forced                                   : No

Text #5
ID                                       : 16
Format                                   : PGS
Muxing mode                              : zlib
Codec ID                                 : S_HDMV/PGS
Codec ID/Info                            : Picture based subtitle format used on BDs/HD-DVDs
Duration                                 : 2 h 48 min
Bit rate                                 : 25.5 kb/s
Count of elements                        : 4238
Stream size                              : 30.7 MiB (0%)
Language                                 : Chinese
Default                                  : No
Forced                                   : No

Text #6
ID                                       : 17
Format                                   : PGS
Muxing mode                              : zlib
Codec ID                                 : S_HDMV/PGS
Codec ID/Info                            : Picture based subtitle format used on BDs/HD-DVDs
Duration                                 : 2 h 48 min
Bit rate                                 : 30.4 kb/s
Count of elements                        : 4680
Stream size                              : 36.7 MiB (0%)
Language                                 : Chinese
Default                                  : No
Forced                                   : No

Text #7
ID                                       : 18
Format                                   : PGS
Muxing mode                              : zlib
Codec ID                                 : S_HDMV/PGS
Codec ID/Info                            : Picture based subtitle format used on BDs/HD-DVDs
Duration                                 : 2 h 48 min
Bit rate                                 : 24.9 kb/s
Count of elements                        : 4614
Stream size                              : 30.0 MiB (0%)
Language                                 : Chinese
Default                                  : No
Forced                                   : No

Text #8
ID                                       : 19
Format                                   : PGS
Muxing mode                              : zlib
Codec ID                                 : S_HDMV/PGS
Codec ID/Info                            : Picture based subtitle format used on BDs/HD-DVDs
Duration                                 : 2 h 48 min
Bit rate                                 : 16.8 kb/s
Count of elements                        : 4464
Stream size                              : 20.3 MiB (0%)
Language                                 : Korean
Default                                  : No
Forced                                   : No

Text #9
ID                                       : 20
Format                                   : PGS
Muxing mode                              : zlib
Codec ID                                 : S_HDMV/PGS
Codec ID/Info                            : Picture based subtitle format used on BDs/HD-DVDs
Duration                                 : 2 h 48 min
Bit rate                                 : 27.4 kb/s
Count of elements                        : 4584
Stream size                              : 33.1 MiB (0%)
Language                                 : Spanish
Default                                  : No
Forced                                   : No

Text #10
ID                                       : 21
Format                                   : PGS
Muxing mode                              : zlib
Codec ID                                 : S_HDMV/PGS
Codec ID/Info                            : Picture based subtitle format used on BDs/HD-DVDs
Duration                                 : 2 h 48 min
Bit rate                                 : 25.9 kb/s
Count of elements                        : 4490
Stream size                              : 31.2 MiB (0%)
Language                                 : Portuguese
Default                                  : No
Forced                                   : No

Text #11
ID                                       : 22
Format                                   : PGS
Muxing mode                              : zlib
Codec ID                                 : S_HDMV/PGS
Codec ID/Info                            : Picture based subtitle format used on BDs/HD-DVDs
Duration                                 : 2 h 48 min
Bit rate                                 : 27.1 kb/s
Count of elements                        : 4614
Stream size                              : 32.7 MiB (0%)
Language                                 : Thai
Default                                  : No
Forced                                   : No

Text #12
ID                                       : 23
Format                                   : PGS
Muxing mode                              : zlib
Codec ID                                 : S_HDMV/PGS
Codec ID/Info                            : Picture based subtitle format used on BDs/HD-DVDs
Duration                                 : 2 h 48 min
Bit rate                                 : 384 b/s
Count of elements                        : 40
Stream size                              : 474 KiB (0%)
Language                                 : French
Default                                  : No
Forced                                   : No

Text #13
ID                                       : 24
Format                                   : PGS
Muxing mode                              : zlib
Codec ID                                 : S_HDMV/PGS
Codec ID/Info                            : Picture based subtitle format used on BDs/HD-DVDs
Duration                                 : 2 h 48 min
Bit rate                                 : 703 b/s
Count of elements                        : 96
Stream size                              : 868 KiB (0%)
Language                                 : Italian
Default                                  : No
Forced                                   : No

Text #14
ID                                       : 25
Format                                   : PGS
Muxing mode                              : zlib
Codec ID                                 : S_HDMV/PGS
Codec ID/Info                            : Picture based subtitle format used on BDs/HD-DVDs
Duration                                 : 2 h 48 min
Bit rate                                 : 489 b/s
Count of elements                        : 62
Stream size                              : 603 KiB (0%)
Language                                 : Spanish
Default                                  : No
Forced                                   : No

Text #15
ID                                       : 26
Format                                   : PGS
Muxing mode                              : zlib
Codec ID                                 : S_HDMV/PGS
Codec ID/Info                            : Picture based subtitle format used on BDs/HD-DVDs
Duration                                 : 2 h 46 min
Bit rate                                 : 372 b/s
Count of elements                        : 60
Stream size                              : 455 KiB (0%)
Language                                 : Spanish
Default                                  : No
Forced                                   : No

Text #16
ID                                       : 27
Format                                   : PGS
Muxing mode                              : zlib
Codec ID                                 : S_HDMV/PGS
Codec ID/Info                            : Picture based subtitle format used on BDs/HD-DVDs
Duration                                 : 2 h 37 min
Bit rate                                 : 367 b/s
Count of elements                        : 50
Stream size                              : 424 KiB (0%)
Language                                 : Portuguese
Default                                  : No
Forced                                   : No

Text #17
ID                                       : 28
Format                                   : PGS
Muxing mode                              : zlib
Codec ID                                 : S_HDMV/PGS
Codec ID/Info                            : Picture based subtitle format used on BDs/HD-DVDs
Duration                                 : 2 h 47 min
Bit rate                                 : 434 b/s
Count of elements                        : 114
Stream size                              : 532 KiB (0%)
Language                                 : Hindi
Default                                  : No
Forced                                   : No

Text #18
ID                                       : 29
Format                                   : PGS
Muxing mode                              : zlib
Codec ID                                 : S_HDMV/PGS
Codec ID/Info                            : Picture based subtitle format used on BDs/HD-DVDs
Duration                                 : 2 h 47 min
Bit rate                                 : 593 b/s
Count of elements                        : 114
Stream size                              : 727 KiB (0%)
Language                                 : Tamil
Default                                  : No
Forced                                   : No

Text #19
ID                                       : 30
Format                                   : PGS
Muxing mode                              : zlib
Codec ID                                 : S_HDMV/PGS
Codec ID/Info                            : Picture based subtitle format used on BDs/HD-DVDs
Duration                                 : 2 h 47 min
Bit rate                                 : 461 b/s
Count of elements                        : 106
Stream size                              : 565 KiB (0%)
Language                                 : Telugu
Default                                  : No
Forced                                   : No

Text #20
ID                                       : 31
Format                                   : PGS
Muxing mode                              : zlib
Codec ID                                 : S_HDMV/PGS
Codec ID/Info                            : Picture based subtitle format used on BDs/HD-DVDs
Duration                                 : 2 h 47 min
Bit rate                                 : 513 b/s
Count of elements                        : 94
Stream size                              : 629 KiB (0%)
Language                                 : Thai
Default                                  : No
Forced                                   : No

                     

[email protected]
Category:Movies > UltraHD/4K
Lang:English  English
Total Size:29.32 GB
Info Hash:991021d56b461ff2f77e0b1cae6882bda3af74e1
Added By:DDR
Date Added:08-12-2019 16:24:40

  

Files

File List: 
 File Size
0A DDR Release !!!.txt287.00 B
0Torrent downloaded from Desitorrents.tv.txt28.00 B
IT.Chapter.Two.2019.MULTi.UHD.Bluray.2160p.HDR.Atmos.7.1.HEVC-DDR.mkv29.32 GB



Loading...
Comments

There are currently no comments. Be the first one to write something !