Just Mercy 2019 Frozen II 2019 vikings s06e08 The Curse of Oak Island S07E10 emergence etrg Bombshell 2019 Midway 2019 doctor sleep New Amsterdam etmovies fbi Richard Jewell 2019 new amsterdam s02e11 FBI S02E13 This Is Us S04E11 the outsider s01e01 Avenue 5 S01E01 hindi Ray Donovan S07E10 Charlies Angels 2019 bad boys for life 2020 vikings This IS Us ethd Shameless S10E11 Ford v Ferrari 2019 Power S06E13 Underwater 2020 9-1-1 Lone Star S01E02 yts A Fall From Grace 2020 Bull S04E12 evo Little Women 2019 Dolittle 2020 The Outsider S01E03 arrow the gentlemen 2020 The Resident S03E13 the outsider Knives Out 2019 0 NCIS Joker 2019 ettv the conners s02e10 rq.mp4 Parasite 2019 Arrow S08E09 doctor sleep 2019 maleficent mistress of evil 2019 Jumanji The Next Level 2019 Project Blue Book S02E01 1917 2019 dcs legends of tomorrow s05e01 gemini man 2019 Terminator Dark Fate 2019 Emergence S01E12 Prodigal Son S01E11 Jojo Rabbit 2019 ddr Manifest S02E03 Star Wars The Rise of Skywalker 2019 xxx 21 Bridges 2019 Motherless Brooklyn 2019 Legends of Tomorrow The Good Doctor S03E12 NCIS S17E13 fbi most wanted s01e03 
Warning! Use a V.P.N When Downloading Torrents!
Your IP Address is 35.175.201.14. Location is United States
Your Internet Provider is tracking your torrent activity! Hide your IP ADDRESS with a V.P.N!
We strongly recommend using ExpressV.P.N to anonymize your torrenting. 30 Day Money Back Guarantee!
Try it Now!
ETTV Recommended TV Shows
Criminal.Minds.S15E04.HDTV.x264-SVA[ettv] torrent
Stumptown.S01E12.HDTV.x264-SVA[ettv] torrent
Chicago.Fire.S08E12.HDTV.x264-SVA[ettv] torrent
Modern.Family.S11E12.HDTV.x264-SVA[ettv] torrent

ETTV Recommended SD
Koko.A.Red.Dog.Story.2019.HDRip.XviD.AC3-EVO torrent
Rocket.Hunter.2020.HDRip.XviD.AC3-EVO torrent
The.Knight.of.Shadows.Between.Yin.and.Yang.2019.BDRip.XviD.AC3-EVO torrent
Cats.2019.HC.HDRip.XviD.AC3-EVO torrent

ETTV Recommended HD
Doctor.Sleep.2019.DC.1080p.BluRay.x264-AAA[EtHD] torrent
The.Knight.of.Shadows.Between.Yin.and.Yang.2019.1080p.Bluray.DTS-HD.MA.5.1.X264-EVO[EtHD] torrent
Boris.and.the.Bomb.2019.720p.AMZN.WEB-DL.x264.AAC-ETRG torrent
Cats.2019.HC.720p.HDRip.X264 AC3-ETRG torrent

ETTV Recommended UHD
Togo 2019.4K.HDR.2160p.WEBDL Sub Ita x265-NAHOM torrent
The.Witcher.S01.2160p.HDR.NF.WEBRip.DDP.Atmos.5.1.x265-TrollUHD torrent
Troop.Zero.2020.2160p.NF.WEBRip.DDP5.1.x264-AJP69 torrent
Pan's.Labyrinth.2006.4K.HDR.2160p.BDRip Ita Spa x265-NAHOM torrent

ETTV Recommended Cam
Dolittle 2020 HDCAM x264 AC3-ETRG torrent
Seberg 2019 HDCAM x264 AC3-ETRG torrent
The Grudge 2020 720p HDTC-GETB8 torrent
Bad Boys for Life 2020 HDCAM x264 AC3-ETRG torrent

ETTV Recommended Foreign
Future Justice (2014) 720p WEB-DL x264 Eng Subs [Dual Audio] [Hindi DD 2.0 - English 2.0] Exclusive By -=!Dr.STAR!=- torrent
Gumnaami (2019) Hindi 720p HDRip x264 AAC - Downloadhub torrent
Jai Mummy Di (2020) V2 Hindi 720p PreDVD x264 AAC 1.2GB NO LOGO CineVood Exclusive torrent
Happy Death Day (2017) Hindi - 720p WEB-DL - AVC- AAC 5.1 - ESubs - Sun George - DrC torrent


Download Torrent "The Muppet Christmas Carol 1992.UHD.2160p.HDR.WEBRip.DTS-HDMA.5.1.HEVC-DDR"

IMDB Details
Description:

The Muppet characters tell their version of the classic tale of an old and bitter miser's redemption on Christmas Eve.

Genre:

Comedy, Drama, Family, Fantasy, Musical

Download Torrent (Magnet)
Download Torrent (File)
Seeds: 38
Leechers: 26
Completed: 1,020 
Last Checked: 11-12-2019 12:59:43


Loading...
Details
Title:The Muppet Christmas Carol 1992.UHD.2160p.HDR.WEBRip.DTS-HDMA.5.1.HEVC-DDR
Description:





SPECS
Format                                   : Matroska
Format version                           : Version 4
File size                                : 12.4 GiB
Duration                                 : 1 h 25 min
Overall bit rate mode                    : Variable
Overall bit rate                         : 20.7 Mb/s
Encoded date                             : UTC 2019-12-11 11:46:14
Writing application                      : mkvmerge v41.0.0 ('Smarra') 64-bit
Writing library                          : libebml v1.3.9 + libmatroska v1.5.2

Video
ID                                       : 1
Format                                   : HEVC
Format/Info                              : High Efficiency Video Coding
Format profile                           : Main [email protected]@High
Codec ID                                 : V_MPEGH/ISO/HEVC
Duration                                 : 1 h 25 min
Bit rate                                 : 15.8 Mb/s
Width                                    : 3 840 pixels
Height                                   : 2 072 pixels
Display aspect ratio                     : 1.85:1
Frame rate mode                          : Constant
Frame rate                               : 23.976 (24000/1001) FPS
Color space                              : YUV
Chroma subsampling                       : 4:2:0
Bit depth                                : 10 bits
Bits/(Pixel*Frame)                       : 0.083
Stream size                              : 9.47 GiB (76%)
Language                                 : English
Default                                  : Yes
Forced                                   : No
Color range                              : Limited
Color primaries                          : BT.2020
Transfer characteristics                 : PQ
Matrix coefficients                      : BT.2020 non-constant

Audio #1
ID                                       : 2
Format                                   : DTS XLL
Format/Info                              : Digital Theater Systems
Commercial name                          : DTS-HD Master Audio
Codec ID                                 : A_DTS
Duration                                 : 1 h 25 min
Bit rate mode                            : Variable
Bit rate                                 : 4 173 kb/s
Channel(s)                               : 6 channels
Channel layout                           : C L R Ls Rs LFE
Sampling rate                            : 48.0 kHz
Frame rate                               : 93.750 FPS (512 SPF)
Bit depth                                : 24 bits
Compression mode                         : Lossless
Stream size                              : 2.51 GiB (20%)
Language                                 : English
Default                                  : Yes
Forced                                   : No

Audio #2
ID                                       : 3
Format                                   : AC-3
Format/Info                              : Audio Coding 3
Commercial name                          : Dolby Digital
Codec ID                                 : A_AC3
Duration                                 : 1 h 25 min
Bit rate mode                            : Constant
Bit rate                                 : 320 kb/s
Channel(s)                               : 2 channels
Channel layout                           : L R
Sampling rate                            : 48.0 kHz
Frame rate                               : 31.250 FPS (1536 SPF)
Bit depth                                : 16 bits
Compression mode                         : Lossy
Stream size                              : 197 MiB (2%)
Title                                    : Commentary 1
Language                                 : English
Service kind                             : Complete Main
Default                                  : No
Forced                                   : No

Audio #3
ID                                       : 4
Format                                   : AC-3
Format/Info                              : Audio Coding 3
Commercial name                          : Dolby Digital
Codec ID                                 : A_AC3
Duration                                 : 1 h 25 min
Bit rate mode                            : Constant
Bit rate                                 : 320 kb/s
Channel(s)                               : 2 channels
Channel layout                           : L R
Sampling rate                            : 48.0 kHz
Frame rate                               : 31.250 FPS (1536 SPF)
Bit depth                                : 16 bits
Compression mode                         : Lossy
Stream size                              : 197 MiB (2%)
Title                                    : Commentary 2
Language                                 : English
Service kind                             : Complete Main
Default                                  : No
Forced                                   : No

Text #1
ID                                       : 5
Format                                   : PGS
Muxing mode                              : zlib
Codec ID                                 : S_HDMV/PGS
Codec ID/Info                            : Picture based subtitle format used on BDs/HD-DVDs
Duration                                 : 1 h 21 min
Bit rate                                 : 47.8 kb/s
Count of elements                        : 2748
Stream size                              : 27.7 MiB (0%)
Title                                    : SDH
Language                                 : English
Default                                  : No
Forced                                   : No

Text #2
ID                                       : 6
Format                                   : PGS
Muxing mode                              : zlib
Codec ID                                 : S_HDMV/PGS
Codec ID/Info                            : Picture based subtitle format used on BDs/HD-DVDs
Duration                                 : 1 h 20 min
Bit rate                                 : 41.6 kb/s
Count of elements                        : 1860
Stream size                              : 24.0 MiB (0%)
Language                                 : French
Default                                  : No
Forced                                   : No

Text #3
ID                                       : 7
Format                                   : PGS
Muxing mode                              : zlib
Codec ID                                 : S_HDMV/PGS
Codec ID/Info                            : Picture based subtitle format used on BDs/HD-DVDs
Duration                                 : 1 h 20 min
Bit rate                                 : 41.6 kb/s
Count of elements                        : 2390
Stream size                              : 24.0 MiB (0%)
Title                                    : Latin American
Language                                 : Spanish
Default                                  : No
Forced                                   : No

Text #4
ID                                       : 8
Format                                   : PGS
Muxing mode                              : zlib
Codec ID                                 : S_HDMV/PGS
Codec ID/Info                            : Picture based subtitle format used on BDs/HD-DVDs
Duration                                 : 1 h 23 min
Bit rate                                 : 75.3 kb/s
Count of elements                        : 3658
Stream size                              : 45.1 MiB (0%)
Title                                    : English Commentary 1
Language                                 : English
Default                                  : No
Forced                                   : No

Text #5
ID                                       : 9
Format                                   : PGS
Muxing mode                              : zlib
Codec ID                                 : S_HDMV/PGS
Codec ID/Info                            : Picture based subtitle format used on BDs/HD-DVDs
Duration                                 : 1 h 22 min
Bit rate                                 : 70.5 kb/s
Count of elements                        : 3088
Stream size                              : 41.6 MiB (0%)
Title                                    : English Commentary 2
Language                                 : English
Default                                  : No
Forced                                   : No


[email protected]
Category:Movies > UltraHD/4K
Lang:English  English
Total Size:12.41 GB
Info Hash:20b57ebe89f9264a0de90e3073d0cda488c2a253
Added By:DDR
Date Added:11-12-2019 12:59:36

  

Files

File List: 
 File Size
0A DDR Release !!!.txt287.00 B
0Torrent downloaded from Desitorrents.tv.txt28.00 B
The Muppet Christmas Carol 1992.UHD.2160p.HDR.WEBRip.DTS-HDMA.5.1.HEVC-DDR.mkv12.41 GB



Loading...
Comments

There are currently no comments. Be the first one to write something !