ddr 21 bridges 2019 Batwoman Joker 2019 terminator dark fate 2019 the outsider Maleficent Mistress of Evil 2019 knives out 2019 ettv big bang theory español Avenue 5 Hindi 1917 2019 the gentlemen 2020 0 Vikings s06e08 wwe royal rumble 2020 ethd evo star wars the rise of skywalker 2019 Saturday Night Live s45e11 supergirl just mercy 2019 bad boys for life 2020 Shameless S10E12 power star trek picard rq.mp4 vikings Curb Your Enthusiasm S10E02 etmovies Curb Your Enthusiasm  Spies in Disguise 2019 shameless Star Trek Picard S01E01 doctor who frozen ii 2019 doctor sleep Real Time with Bill Maher 2020 01 24 jumanji the next level 2019 wwe The New Pope Gemini Man 2019 Greys Anatomy s16e10 Star wars picard etrg underwater 2020 Knives Out Avenue 5 S01E02 Grammy dolittle 2020 Greys Anatomy the outsider s01e04 supergirl s05e11 doctor who s12e05 midway 2019 batwoman s01e11 Charlies Angels 2019 Supernatural  yts xxx playing with fire 2019 ford v ferrari 2019 motherless brooklyn 2019 royal rumble ita Doctor Sleep 2019 power s06e14 royal rumble 2020 
Warning! Use a V.P.N When Downloading Torrents!
Your IP Address is 3.227.240.143. Location is United States
Your Internet Provider is tracking your torrent activity! Hide your IP ADDRESS with a V.P.N!
We strongly recommend using ExpressV.P.N to anonymize your torrenting. 30 Day Money Back Guarantee!
Try it Now!
ETTV Recommended TV Shows
9-1-1.Lone.Star.S01E03.WEB.x264-XLF[ettv] torrent
Coroner.S02E04.WEBRip.x264-TBS[ettv] torrent
Black.Lightning.S03E11.HDTV.x264-SVA[ettv] torrent
The.Bachelor.S24E04.WEB.H264-XLF[ettv] torrent

ETTV Recommended SD
Good.Posture.2019.HDRip.XviD.AC3-EVO torrent
The.Krays.Mad.Axeman.2019.HDRip.XviD.AC3-EVO torrent
Get.Gone.2019.HDRip.XviD.AC3-EVO torrent
Ford.v.Ferrari.2019.HDRip.XviD.AC3-EVO torrent

ETTV Recommended HD
Good.Posture.2019.1080p.WEB-DL.H264.AC3-EVO[EtHD] torrent
The.Krays.Mad.Axeman.2019.1080p.WEB-DL.H264.AC3-EVO[EtHD] torrent
Ford.v.Ferrari.2019.1080p.WEB-DL.H264.AC3-EVO[EtHD] torrent
Get.Gone.2019.1080p.WEB-DL.x264.AAC-ETRG torrent

ETTV Recommended UHD
Terminator.Dark.Fate.2019.2160p.UHD.BluRay.10bit.SDR.x265-HazMatt.mkv torrent
The.Sword.in.the.Stone.1963.4K.HDR.2160p.WEBDL Ita Eng x265-NAHOM torrent
Once.Upon.a.Time.in.Hollywood.2019.2160p.UHD.BluRay.10bit.SDR.x26-HazMatt.mkv torrent
Doctor Sleep (2019) [BluRay Rip 2160p HEVC 10bit-HDR ITA-ENG AC3-SUBS] [M@HD] torrent

ETTV Recommended Cam
Dolittle 2020 HDCAM x264 AC3-ETRG torrent
The Grudge 2020 720p HDTC-GETB8 torrent
Bad.Boys.for.Life.2020.NEW.HDTS.x264.AC3-ETRG torrent
The.Turning.2020.HDCAM.x264.AC3-ETRG torrent

ETTV Recommended Foreign
The.Counterfeiters.2007.GERMAN.1080p.BluRay.H265.10-bit.AAC.5.1-Kali torrent
The King - Il Re (2019).720p.H264.ita.eng.Ac3-5.1.sub.ita.eng-MIRCrew torrent
Semma Botha Aagatha (2018) 720p UNCUT HDRip x264 Eng Subs [Dual Audio] [Hindi DD 2.0 - Tamil 5.1] Exclusive By -=!Dr.STAR!=- torrent
Chhalawa.2019.Urdu.1080p. Vidly.WEB-DL.AAC.2.0.x264-Telly torrent


Download Torrent "Band Vaaje 2019 x264 720p HD Punjabi GOPISAHI"

IMDB Details
Description:

N/A

Genre:

N/A

Download Torrent (Magnet)
Download Torrent (File)
Seeds: 4
Leechers: 0
Completed:
Last Checked: 12-12-2019 08:37:17


Loading...
Details
Title:Band Vaaje 2019 x264 720p HD Punjabi GOPISAHI
Description:
https://www.gopisahi.in/



Band Vaaje 2019 x264 720p HD Punjabi GOPISAHI

Format                         : Matroska
Format version                 : Version 4
File size                      : 856 MiB
Duration                       : 2 h 0 min
Overall bit rate               : 996 kb/s
Movie name                     : Band Vaaje 2019 GOPISAHI

Video
Format                         : AVC
Format/Info                    : Advanced Video Codec
Format profile                 : [email protected]
Format settings                : CABAC / 11 Ref Frames
Format settings, CABAC         : Yes
Format settings, Reference fra : 11 frames
Codec ID                       : V_MPEG4/ISO/AVC
Duration                       : 2 h 0 min
Bit rate                       : 899 kb/s
Width                          : 1 280 pixels
Height                         : 548 pixels
Display aspect ratio           : 2.35:1
Frame rate mode                : Constant
Frame rate                     : 25.000 FPS
Color space                    : YUV
Chroma subsampling             : 4:2:0
Bit depth                      : 8 bits
Scan type                      : Progressive
Bits/(Pixel*Frame)             : 0.051
Stream size                    : 772 MiB (90%)
Title                          : GOPISAHI
Writing library                : x264 core 157 r2935 545de2f

Audio
Format                         : AAC LC
Format/Info                    : Advanced Audio Codec Low Complexity
Codec ID                       : A_AAC-2
Duration                       : 2 h 0 min
Bit rate                       : 96.0 kb/s
Channel(s)                     : 2 channels
Channel layout                 : L R
Sampling rate                  : 48.0 kHz
Frame rate                     : 46.875 FPS (1024 SPF)
Compression mode               : Lossy
Delay relative to video        : -21 ms
Stream size                    : 82.4 MiB (10%)
Title                          : GOPISAHI
Language                       : Panjabi







Category:Movies > Bollywood
Lang:Punjabi  Punjabi
Total Size:856 MB
Info Hash:8c276c99f458527d5b8bf05018eef0a150bff32d
Added By:GOPISAHI
Date Added:12-12-2019 08:37:08

  

Files

File List: 
 File Size
Band Vaaje 2019 x264 720p HD Punjabi GOPISAHI.mkv856 MB



Loading...
Comments

There are currently no comments. Be the first one to write something !