ddr 21 bridges 2019 Batwoman Joker 2019 terminator dark fate 2019 the outsider Maleficent Mistress of Evil 2019 knives out 2019 ettv big bang theory español Avenue 5 Hindi 1917 2019 the gentlemen 2020 0 Vikings s06e08 wwe royal rumble 2020 ethd evo star wars the rise of skywalker 2019 Saturday Night Live s45e11 supergirl just mercy 2019 bad boys for life 2020 Shameless S10E12 power star trek picard rq.mp4 vikings Curb Your Enthusiasm S10E02 etmovies Curb Your Enthusiasm  Spies in Disguise 2019 shameless Star Trek Picard S01E01 doctor who frozen ii 2019 doctor sleep Real Time with Bill Maher 2020 01 24 jumanji the next level 2019 wwe The New Pope Gemini Man 2019 Greys Anatomy s16e10 Star wars picard etrg underwater 2020 Knives Out Avenue 5 S01E02 Grammy dolittle 2020 Greys Anatomy the outsider s01e04 supergirl s05e11 doctor who s12e05 midway 2019 batwoman s01e11 Charlies Angels 2019 Supernatural  yts xxx playing with fire 2019 ford v ferrari 2019 motherless brooklyn 2019 royal rumble ita Doctor Sleep 2019 power s06e14 royal rumble 2020 
Warning! Use a V.P.N When Downloading Torrents!
Your IP Address is 34.204.200.74. Location is United States
Your Internet Provider is tracking your torrent activity! Hide your IP ADDRESS with a V.P.N!
We strongly recommend using ExpressV.P.N to anonymize your torrenting. 30 Day Money Back Guarantee!
Try it Now!
ETTV Recommended TV Shows
Coroner.S02E04.WEBRip.x264-TBS[ettv] torrent
Black.Lightning.S03E11.HDTV.x264-SVA[ettv] torrent
The.Bachelor.S24E04.WEB.H264-XLF[ettv] torrent
WWE Monday Night Raw 2020 01 27 HDTV x264-NWCHD [TJET] torrent

ETTV Recommended SD
Dead.Earth.2020.HDRip.XviD.AC3-EVO torrent
Battle.Star.Wars.2020.HDRip.XviD.AC3-EVO torrent
The.Windermere.Children.2020.HDRip.XviD.AC3-EVO torrent
The.Great.Alaskan.Race.2019.HDRip.XviD.AC3-EVO torrent

ETTV Recommended HD
The.Windermere.Children.2020.1080p.WEB-DL.H264.AC3-EVO[EtHD] torrent
Dead.Earth.2020.1080p.WEB-DL.H264.AC3-EVO[EtHD] torrent
My.Name.Is.Myeisha.2020.1080p.WEB-DL.H264.AC3-EVO[EtHD] torrent
Logan.2017.BRRip.1080p.HEVC.HDR.Eng.Fre.Spa.DD5.1.ETRG torrent

ETTV Recommended UHD
The.Sword.in.the.Stone.1963.4K.HDR.2160p.WEBDL Ita Eng x265-NAHOM torrent
Doctor Sleep (2019) [BluRay Rip 2160p HEVC 10bit-HDR ITA-ENG AC3-SUBS] [M@HD] torrent
Logan.2017.BDRip.2160p.UHD.HDR.Eng.Fre.Spa.TrueHD.DD5.1.ETRG torrent
Logan.Lucky.2017.BDRip.2160p.UHD.HDR.Eng.Fre.DTS-HDMA.DTS.ETRG torrent

ETTV Recommended Cam
Dolittle 2020 HDCAM x264 AC3-ETRG torrent
The Grudge 2020 720p HDTC-GETB8 torrent
Bad.Boys.for.Life.2020.NEW.HDTS.x264.AC3-ETRG torrent
The.Turning.2020.HDCAM.x264.AC3-ETRG torrent

ETTV Recommended Foreign
Semma Botha Aagatha (2018) 720p UNCUT HDRip x264 Eng Subs [Dual Audio] [Hindi DD 2.0 - Tamil 5.1] Exclusive By -=!Dr.STAR!=- torrent
Chhalawa.2019.Urdu.1080p. Vidly.WEB-DL.AAC.2.0.x264-Telly torrent
Ratsasan 2018 720p 10bit UNCUT WEBRip Dual Audio [Hindi DD2.0 - Tamil] x265 HEVC ESub - MoviePirate- Telly.mkv torrent
Labou (2008) 720p WEBRip x264 Eng Subs [Dual Audio] [Hindi DD 2.0 - English 5.1] Exclusive By -=!Dr.STAR!=- torrent


Download Torrent "Blade Runner 2049 2017 720p 10bit BluRay x265 HEVC [Hindi DD2.0 - English D..."

IMDB Details
Description:

N/A

Genre:

N/A

Download Torrent (Magnet)
Download Torrent (File)
Seeds: 558
Leechers: 1,241
Completed: 711 
Last Checked: 15-01-2020 04:41:15


Loading...
Details
Title:Blade Runner 2049 2017 720p 10bit BluRay x265 HEVC [Hindi DD2.0 - English D...
Description:



****************************
_____ _ _ 
|_ _|___ | || | _ _ 
| | / _ \| || || | | |
| || __/| || || |_| |
|_| \___||_||_| \__, |
|___/ 
****************************
Team Telly Proudly Presents
****************************
------------------
|Media Info|
------------------
General
Unique ID                                : 181386516000251253439275976292050130007 (0x8875C5B34F3B631D97F3B624A1AFD457)
Complete name                            : H:\Encoded\Source\Blade Runner 2049 2017 720p 10bit BluRay x265 HEVC [Hindi DD2.0 - English DD5.1] ESub - MoviePirate - Telly.mkv
Format                                   : Matroska
Format version                           : Version 4
File size                                : 1.64 GiB
Duration                                 : 2 h 43 min
Overall bit rate                         : 1 435 kb/s
Movie name                               : MoviePirate.Site | Blade Runner 2049 2017 720p 10bit BluRay x265 HEVC [Hindi DD2.0 - English DD5.1] ESub - MoviePirate - Telly
Encoded date                             : UTC 2020-01-15 03:49:59
Writing application                      : mkvmerge v42.0.0 ('Overtime') 64-bit
Writing library                          : libebml v1.3.10 + libmatroska v1.5.2
Cover                                    : Yes
Attachments                              : cover.jpg / small_cover.jpg / cover_land.jpg / small_cover_land.jpg
Video
ID                                       : 1
Format                                   : HEVC
Format/Info                              : High Efficiency Video Coding
Format profile                           : Main [email protected]@Main
Codec ID                                 : V_MPEGH/ISO/HEVC
Duration                                 : 2 h 43 min
Bit rate                                 : 1 011 kb/s
Width                                    : 1 280 pixels
Height                                   : 536 pixels
Display aspect ratio                     : 2.40:1
Frame rate mode                          : Constant
Frame rate                               : 23.976 (24000/1001) FPS
Color space                              : YUV
Chroma subsampling                       : 4:2:0
Bit depth                                : 10 bits
Bits/(Pixel*Frame)                       : 0.061
Stream size                              : 1.16 GiB (70%)
Title                                    : MoviePirate.Site
Writing library                          : x265 3.2+9-971180b100f8:[Windows][GCC 9.2.0][64 bit] 10bit
Encoding settings                        : cpuid=1111039 / frame-threads=5 / numa-pools=32 / wpp / no-pmode / no-pme / no-psnr / no-ssim / log-level=2 / input-csp=1 / input-res=1280x536 / interlace=0 / total-frames=235632 / level-idc=41 / high-tier=1 / uhd-bd=0 / ref=2 / no-allow-non-conformance / no-repeat-headers / annexb / no-aud / no-hrd / info / hash=0 / no-temporal-layers / open-gop / min-keyint=23 / keyint=250 / gop-lookahead=0 / bframes=4 / b-adapt=0 / b-pyramid / bframe-bias=0 / rc-lookahead=15 / lookahead-slices=0 / scenecut=40 / radl=0 / no-splice / no-intra-refresh / ctu=64 / min-cu-size=8 / no-rect / no-amp / max-tu-size=32 / tu-inter-depth=1 / tu-intra-depth=1 / limit-tu=0 / rdoq-level=0 / dynamic-rd=0.00 / no-ssim-rd / signhide / no-tskip / nr-intra=0 / nr-inter=0 / no-constrained-intra / strong-intra-smoothing / max-merge=2 / limit-refs=3 / no-limit-modes / me=1 / subme=2 / merange=57 / temporal-mvp / no-frame-dup / no-hme / weightp / no-weightb / no-analyze-src-pics / deblock=0:0 / sao / no-sao-non-deblock / rd=2 / selective-sao=4 / early-skip / rskip / fast-intra / no-tskip-fast / no-cu-lossless / no-b-intra / no-splitrd-skip / rdpenalty=0 / psy-rd=2.00 / psy-rdoq=0.00 / no-rd-refine / no-lossless / cbqpoffs=0 / crqpoffs=0 / rc=abr / bitrate=1000 / qcomp=0.60 / qpstep=4 / stats-write=0 / stats-read=0 / ipratio=1.40 / pbratio=1.30 / aq-mode=2 / aq-strength=1.00 / cutree / zone-count=0 / no-strict-cbr / qg-size=32 / no-rc-grain / qpmax=69 / qpmin=0 / no-const-vbv / sar=0 / overscan=0 / videoformat=5 / range=0 / colorprim=2 / transfer=2 / colormatrix=2 / chromaloc=0 / display-window=0 / cll=0,0 / min-luma=0 / max-luma=1023 / log2-max-poc-lsb=8 / vui-timing-info / vui-hrd-info / slices=1 / no-opt-qp-pps / no-opt-ref-list-length-pps / no-multi-pass-opt-rps / scenecut-bias=0.05 / no-opt-cu-delta-qp / no-aq-motion / no-hdr / no-hdr-opt / no-dhdr10-opt / no-idr-recovery-sei / analysis-reuse-level=5 / scale-factor=0 / refine-intra=0 / refine-inter=0 / refine-mv=1 / refine-ctu-distortion=0 / no-limit-sao / ctu-info=0 / no-lowpass-dct / refine-analysis-type=0 / copy-pic=1 / max-ausize-factor=1.0 / no-dynamic-refine / no-single-sei / no-hevc-aq / no-svt / no-field / qp-adaptation-range=1.00
Default                                  : Yes
Forced                                   : No
Audio #1
ID                                       : 2
Format                                   : AC-3
Format/Info                              : Audio Coding 3
Commercial name                          : Dolby Digital
Codec ID                                 : A_AC3
Duration                                 : 2 h 43 min
Bit rate mode                            : Constant
Bit rate                                 : 192 kb/s
Channel(s)                               : 6 channels
Channel layout                           : L R C LFE Ls Rs
Sampling rate                            : 48.0 kHz
Frame rate                               : 31.250 FPS (1536 SPF)
Compression mode                         : Lossy
Stream size                              : 225 MiB (13%)
Title                                    : MoviePirate.Site
Language                                 : English
Service kind                             : Complete Main
Default                                  : Yes
Forced                                   : No
Audio #2
ID                                       : 5
Format                                   : AC-3
Format/Info                              : Audio Coding 3
Commercial name                          : Dolby Digital
Codec ID                                 : A_AC3
Duration                                 : 2 h 43 min
Bit rate mode                            : Constant
Bit rate                                 : 224 kb/s
Channel(s)                               : 2 channels
Channel layout                           : L R
Sampling rate                            : 48.0 kHz
Frame rate                               : 31.250 FPS (1536 SPF)
Compression mode                         : Lossy
Delay relative to video                  : 14 s 130 ms
Stream size                              : 262 MiB (16%)
Title                                    : MoviePirate.Site
Language                                 : Hindi
Service kind                             : Complete Main
Default                                  : No
Forced                                   : No
Text #1
ID                                       : 3
Format                                   : PGS
Muxing mode                              : zlib
Codec ID                                 : S_HDMV/PGS
Codec ID/Info                            : Picture based subtitle format used on BDs/HD-DVDs
Duration                                 : 2 h 29 min
Bit rate                                 : 21.2 kb/s
Count of elements                        : 2716
Stream size                              : 22.7 MiB (1%)
Title                                    : MoviePirate.Site
Language                                 : English
Default                                  : No
Forced                                   : No
Text #2
ID                                       : 4
Format                                   : UTF-8
Codec ID                                 : S_TEXT/UTF8
Codec ID/Info                            : UTF-8 Plain Text
Duration                                 : 2 h 32 min
Bit rate                                 : 34 b/s
Count of elements                        : 1359
Stream size                              : 38.5 KiB (0%)
Title                                    : MoviePirate.Site
Language                                 : English
Default                                  : Yes
Forced                                   : No
Menu
00:00:00.000                             : en:Chapter 01
00:12:50.269                             : en:Chapter 02
00:23:43.380                             : en:Chapter 03
00:37:14.857                             : en:Chapter 04
00:43:04.248                             : en:Chapter 05
00:49:38.600                             : en:Chapter 06
00:58:49.609                             : en:Chapter 07
01:04:24.485                             : en:Chapter 08
01:16:01.014                             : en:Chapter 09
01:25:26.412                             : en:Chapter 10
01:36:29.158                             : en:Chapter 11
01:51:08.953                             : en:Chapter 12
02:01:50.761                             : en:Chapter 13
02:08:54.476                             : en:Chapter 14
02:16:56.583                             : en:Chapter 15
02:28:00.913                             : en:Chapter 16
****************************
Telly.cc
Team Telly Official Site
****************************
[size=29]www.MoviePirate.Site[/size]
Enjoy Exclusives Content only on Telly.cc


Category:Movies > Dubs/Dual Audio
Lang:Hindi  Hindi
Total Size:1.64 GB
Info Hash:92b76e7d06472aeb26cbe9a145fe137c471503e7
Added By:uploader6969
Date Added:15-01-2020 04:41:13

  

Files

File List: 
 File Size
Blade Runner 2049 2017 720p 10bit BluRay x265 HEVC [Hindi DD2.0 - English DD5.1] ESub - MoviePirate - Telly.mkv1.64 GB



Loading...
Comments

There are currently no comments. Be the first one to write something !