Legacies S02E13 ETHD etmovies UFC Fight Night 167 The Gentlemen 2019 xxx Outlander  Hindi arrow español Knives Out 2019 charlies angels 2019 21 bridges 2019 terminator dark fate 2019 ddr Harley Quinn s01e12 picard bad boys for life 2020 ethd Blue Bloods S10E14 ford v ferrari 2019 frozen 2 greys anatomy S16E13 Yts frozen ii 2019 jumanji supernatural underwater 2020 PARASITE rq.mp4 Jumanji The Next Level 2019 Star Trek Picard S01E04 Sonic the Hedgehog 2020 Greys Anatomy WWE Outlander S05E01 Little Women 2019 Fantasy Island 2020 strike back harley quinn Dolittle 2020 yts The Good Doctor s03e14 ufc brooklyn nine nine s07e03 ettv Parasite 2019 knives out evo doctor sleep 2019 Star Wars Homeland etrg star trek picard 0 star trek picard s01e03 The Gentlemen 2020 Homeland S08E02 Lincoln Rhyme Hunt for the Bone Collector S01E05 Joker 2019 midway 2019 Ancient Aliens S15E04 The outsider s01e07 Jojo Rabbit 2019 1917 2019 vikings Star Wars The Rise of Skywalker 2019 birds of prey (and the fantabulous emancipation of one harley quinn) 2020 Gold Rush S10E18 joker The OUTSIDER  brooklyn nine nine Doctor Who 
Warning! Use a V.P.N When Downloading Torrents!
Your IP Address is 3.234.245.121. Location is United States
Your Internet Provider is tracking your torrent activity! Hide your IP ADDRESS with a V.P.N!
We strongly recommend using ExpressV.P.N to anonymize your torrenting. 30 Day Money Back Guarantee!
Try it Now!
ETTV Recommended TV Shows
NCIS.Los.Angeles.S11E14.HDTV.x264-SVA[ettv] torrent
Avenue.5.S01E05.WEBRip.x264-XLF[ettv] torrent
The.Outsider.2020.S01E07.WEBRip.x264-XLF[ettv] torrent
NCIS.New.Orleans.S06E11.WEB.x264-XLF[ettv] torrent

ETTV Recommended SD
Mr.Jones.2019.BDRip.XviD.AC3-EVO torrent
Brown.Paper.Bag.2019.HDRip.XviD.AC3-EVO torrent
The.Jack.In.The.Box.2020.HDRip.XviD.AC3-EVO torrent
Dead.Fred.2019.HDRip.XviD.AC3-EVO torrent

ETTV Recommended HD
Dead.Fred.2019.1080p.WEB-DL.H264.AC3-EVO[EtHD] torrent
Demon.Eye.2019.1080p.AMZN.WEB-DL.DDP5.1.H.264-NTG[EtHD] torrent
Picture Perfect Mysteries Dead Over DIamonds (2020) 720p HDTV X264 Solar torrent
Star.Wars.The.Last.Jedi.2017.BRRip.HEVC.HDR.Eng.Spa.DD5.1.ETRG torrent

ETTV Recommended UHD
Frozen.II.2019.2160p.UHD.BluRay.x265-TERMiNAL torrent
Rogue.One.A.Star Wars Story 2016.4K.HDR.2160p.WEBDL Ita Eng x265-NAHOM torrent
Abominable.2019.4K.HDR.2160p.BDRip Ita Eng x265-NAHOM torrent
Star.Wars.The.Last.Jedi.2017.BDRip.UHD.HDR.Eng.Spa.TrueHD.ETRG torrent

ETTV Recommended Cam
Fantasy Island 2020 HDCAM x264-ETRG torrent
The Photograph 2020 720p HDCAM-C1NEM4 torrent
Emma 2020 720p HDCAM-C1NEM4 torrent
Sonic the Hedgehog.2020.READNFO.HDCAM.x264-ETRG torrent

ETTV Recommended Foreign
Panipat - The Great Betrayal.2019.540p.NF.WEB-DL.DD+5.1.x264-Telly torrent
Air.Strike.1080p.AMZN.WEB-DL.HIN-Multi.DD+5.1.x264-Telly torrent
Apostle of Dracula (2012) 720p WEBRip x264 [Dual Audio] [Hindi 2.0 - English 2.0] Exclusive By -=!Dr.STAR!=- torrent
Dabangg.3.2019.720p.AMZN.WEB-DL.x264.AAC-ETRG torrent


Download Torrent "The.Witcher.S01.2160p.HDR.NF.WEBRip.DDP.Atmos.5.1.x265-TrollUHD"

IMDB Details
Description:

N/A

Genre:

N/A

Download Torrent (Magnet)
Download Torrent (File)
Seeds: 19
Leechers: 93
Completed: 195 
Last Checked: 16-01-2020 15:15:29


Details
Title:The.Witcher.S01.2160p.HDR.NF.WEBRip.DDP.Atmos.5.1.x265-TrollUHD
Description:



The Witcher (2019)



Info from Episode 01

General

Complete name                           :The.Witcher.S01.2160p.HDR.NF.WEBRip.DDP.Atmos.5.1.x265-TrollUHD[rartv]/The.Witcher.S01E01.2160p.HDR.NF.WEBRip.DDP.Atmos.5.1.x265-TrollUHD.mkv
Format                                   : Matroska
Format version                           : Version 4 / Version 2
File size                                : 7.27 GiB
Duration                                 : 1 h 1 min
Overall bit rate                         : 17.0 Mb/s
Encoded date                             : UTC 2019-12-23 11:10:51
Writing application                      : mkvmerge v41.0.0 ('Smarra') 64-bit
Writing library                          : libebml v1.3.9 + libmatroska v1.5.2
Video
ID                                       : 1
Format                                   : HEVC
Format/Info                              : High Efficiency Video Coding
Format profile                           : Main [email protected]@High
Codec ID                                 : V_MPEGH/ISO/HEVC
Duration                                 : 1 h 1 min
Bit rate                                 : 15.9 Mb/s
Width                                    : 3 840 pixels
Height                                   : 1 920 pixels
Display aspect ratio                     : 2.000
Frame rate mode                          : Constant
Frame rate                               : 24.000 FPS
Color space                              : YUV
Chroma subsampling                       : 4:2:0
Bit depth                                : 10 bits
Bits/(Pixel*Frame)                       : 0.090
Stream size                              : 6.80 GiB (94%)
Writing library                          : x265 3.2+9-971180b100f8:[Windows][MSVC 1923][64 bit] 10bit
Encoding settings                        : cpuid=1111039 / frame-threads=4 / numa-pools=28,0 / wpp / no-pmode / no-pme / no-psnr / no-ssim / log-level=2 / input-csp=1 / input-res=3840x1920 / interlace=0 / total-frames=0 / level-idc=51 / high-tier=1 / uhd-bd=0 / ref=5 / no-allow-non-conformance / repeat-headers / annexb / no-aud / no-hrd / info / hash=0 / no-temporal-layers / open-gop / min-keyint=24 / keyint=250 / gop-lookahead=0 / bframes=8 / b-adapt=2 / b-pyramid / bframe-bias=0 / rc-lookahead=40 / lookahead-slices=0 / scenecut=40 / radl=0 / no-splice / no-intra-refresh / ctu=64 / min-cu-size=8 / no-rect / no-amp / max-tu-size=32 / tu-inter-depth=3 / tu-intra-depth=3 / limit-tu=0 / rdoq-level=1 / dynamic-rd=0.00 / no-ssim-rd / signhide / no-tskip / nr-intra=0 / nr-inter=0 / no-constrained-intra / strong-intra-smoothing / max-merge=5 / limit-refs=0 / no-limit-modes / me=3 / subme=4 / merange=57 / temporal-mvp / no-frame-dup / no-hme / weightp / weightb / no-analyze-src-pics / deblock=0:0 / no-sao / no-sao-non-deblock / rd=6 / selective-sao=0 / no-early-skip / rskip / no-fast-intra / no-tskip-fast / no-cu-lossless / b-intra / no-splitrd-skip / rdpenalty=0 / psy-rd=4.00 / psy-rdoq=8.00 / no-rd-refine / no-lossless / cbqpoffs=0 / crqpoffs=0 / rc=crf / crf=15.0 / qcomp=0.60 / qpstep=4 / stats-write=0 / stats-read=0 / vbv-maxrate=160000 / vbv-bufsize=160000 / vbv-init=0.9 / crf-max=0.0 / crf-min=0.0 / ipratio=1.40 / pbratio=1.30 / aq-mode=2 / aq-strength=1.00 / cutree / zone-count=0 / no-strict-cbr / qg-size=32 / no-rc-grain / qpmax=69 / qpmin=0 / no-const-vbv / sar=0 / overscan=0 / videoformat=5 / range=0 / colorprim=9 / transfer=16 / colormatrix=9 / chromaloc=0 / display-window=0 / master-display=G(13250,34500)B(7500,3000)R(34000,16000)WP(15635,16450)L(10000000,1) / cll=1078,96 / min-luma=0 / max-luma=1023 / log2-max-poc-lsb=8 / vui-timing-info / vui-hrd-info / slices=1 / no-opt-qp-pps / no-opt-ref-list-length-pps / no-multi-pass-opt-rps / scenecut-bias=0.05 / no-opt-cu-delta-qp / no-aq-motion / hdr / hdr-opt / no-dhdr10-opt / no-idr-recovery-sei / analysis-reuse-level=5 / scale-factor=0 / refine-intra=0 / refine-inter=0 / refine-mv=1 / refine-ctu-distortion=0 / no-limit-sao / ctu-info=0 / no-lowpass-dct / refine-analysis-type=0 / copy-pic=1 / max-ausize-factor=1.0 / no-dynamic-refine / no-single-sei / no-hevc-aq / no-svt / no-field / qp-adaptation-range=1.00
Default                                  : Yes
Forced                                   : No
Color range                              : Limited
Color primaries                          : BT.2020
Transfer characteristics                 : SMPTE ST 2084
Matrix coefficients                      : BT.2020 non-constant
Mastering display color primaries        : R: x=0.680000 y=0.320000, G: x=0.265000 y=0.690000, B: x=0.150000 y=0.060000, White point: x=0.312700 y=0.329000
Mastering display luminance              : min: 0.0001 cd/m2, max: 1000.0000 cd/m2
Maximum Content Light Level              : 1078 cd/m2
Maximum Frame-Average Light Level        : 96 cd/m2
Audio
ID                                       : 2
Format                                   : E-AC-3
Format/Info                              : Enhanced Audio Coding 3
Format settings, Endianness              : Big
Codec ID                                 : A_EAC3
Duration                                 : 1 h 1 min
Bit rate mode                            : Constant
Bit rate                                 : 768 kb/s
Channel(s)                               : 6 channels
Channel positions                        : Front: L C R, Side: L R, LFE
Sampling rate                            : 48.0 kHz
Frame rate                               : 187.500 FPS (256 spf)
Compression mode                         : Lossy
Stream size                              : 335 MiB (5%)
Title                                    : English
Language                                 : English
Default                                  : Yes
Forced                                   : No
Text #1
ID                                       : 3
Format                                   : UTF-8
Codec ID                                 : S_TEXT/UTF8
Codec ID/Info                            : UTF-8 Plain Text
Language                                 : English
Default                                  : No
              
Subtitles 29 different subs
Source - Netflix WebRip
Encoded By - trolluhd
https://www.imdb.com/title/tt5180504



Stars: Henry Cavill, Freya Allan, Anya Chalotra      



Geralt of Rivia, a solitary monster hunter, struggles to find his place in a world where people often prove more wicked than beasts.








Category:TV > UltraHD/4K
Lang:English  English
Total Size:63.05 GB
Info Hash:be433f8ad2211562d3fee75c3e68cd8819f7bc44
Added By:Will1869
Date Added:16-01-2020 15:15:25

  

Files

File List: 
 File Size
The.Witcher.S01E01.2160p.HDR.NF.WEBRip.DDP.Atmos.5.1.x265-TrollUHD.mkv7.27 GB
The.Witcher.S01E02.2160p.HDR.NF.WEBRip.DDP.Atmos.5.1.x265-TrollUHD.mkv7.68 GB
The.Witcher.S01E03.2160p.HDR.NF.WEBRip.DDP.Atmos.5.1.x265-TrollUHD.mkv9.01 GB
The.Witcher.S01E04.2160p.HDR.NF.WEBRip.DDP.Atmos.5.1.x265-TrollUHD.mkv9.67 GB
The.Witcher.S01E05.2160p.HDR.NF.WEBRip.DDP.Atmos.5.1.x265-TrollUHD.mkv8.14 GB
The.Witcher.S01E06.2160p.HDR.NF.WEBRip.DDP.Atmos.5.1.x265-TrollUHD.mkv7.65 GB
The.Witcher.S01E07.2160p.HDR.NF.WEBRip.DDP.Atmos.5.1.x265-TrollUHD.mkv6.14 GB
The.Witcher.S01E08.2160p.HDR.NF.WEBRip.DDP.Atmos.5.1.x265-TrollUHD.mkv7.47 GB



Loading...
Comments

There are currently no comments. Be the first one to write something !