NCIS New Orleans S06E12 the good doctor s03e16 Wwe hindi ettv Birds of Prey (and the Fantabulous Emancipation of One Harley Quinn) 2020 manifest Batwoman Black lightning picard frozen ii 2019 hunters avenue 5 Black Lightning S03E14 Knives Out 2019 rq.mp4 ford v ferrari 2019 better call saul s05e01 star wars vikings underwater 2020 Doctor Who midway 2019 the outsider greys anatomy Outlander S05E02 1917 2019 Homeland S08E03 bad boys for life 2020 supergirl s05e13 bombshell parasite 2019 Joker 2019 evo ddr fantasy island 2020 The Walking Dead S10E09 Batwoman S01E13 Supergirl The Bachelor S24E09 star trek picard ethd better call saul Better Call Saul S05E02 The Rookie S02E11 etmovies etrg The Gentlemen 2019 The good doctor parasite the walking dead  the outsider s01e08 Sonic the Hedgehog 2020 Hunters S01E01 charlies angels 2019 jumanji the next level 2019 star wars the rise of skywalker 2019 superman red son ITA yts terminator dark fate 2019 dolittle 2020 Star Trek Picard S01E05 ncis 21 bridges 2019 xxx the rookie 9-1-1 Lone Star S01E07 The Call of the Wild 2020 homeland 
Warning! Use a V.P.N When Downloading Torrents!
Your IP Address is 3.229.118.253. Location is United States
Your Internet Provider is tracking your torrent activity! Hide your IP ADDRESS with a V.P.N!
We strongly recommend using ExpressV.P.N to anonymize your torrenting. 30 Day Money Back Guarantee!
Try it Now!
ETTV Recommended TV Shows
DCs.Legends.of.Tomorrow.S05E06.HDTV.x264-SVA[ettv] torrent
This.Is.Us.S04E15.HDTV.x264-SVA[ettv] torrent
New.Amsterdam.2018.S02E15.HDTV.x264-SVA[ettv] torrent
The.Flash.2014.S06E13.WEB.H264-XLF[ettv] torrent

ETTV Recommended SD
We.Only.Know.So.Much.2019.HDRip.XviD.AC3-EVO torrent
The.Death.Of.Dick.Long.2019.BRRip.XviD.AC3-EVO torrent
Charlies Angels.2019.BRRip.XviD.AC3-EVO torrent
2.Graves.in.the.Desert.2020.BRRip.XViD.AC3-ETRG torrent

ETTV Recommended HD
The.Death.of.Dick.Long.2019.1080p.BluRay.X264-AMIABLE[EtHD] torrent
2.Graves.in.the.Desert.2020.1080p.BluRay.x264-ROVERS[EtHD] torrent
The.Sonata.2018.1080p.BluRay.x264-ROVERS[EtHD] torrent
Charlies.Angels.2019.1080p.BluRay.x264-DRONES[EtHD] torrent

ETTV Recommended UHD
Color Out of Space (2019) (2160p BluRay x265 HEVC 10bit AAC 5.1 Tigole) torrent
Lone Survivor (2013) (2160p BluRay x265 HEVC 10bit HDR AAC 7.1 Tigole) torrent
Beauty.And.The.Beast.1991.4K.HDR.2160p.WEBDL Ita Eng x265-NAHOM torrent
The.Addams.Family.2019.4K.HDR.2160p.BDRip Ita Eng x265-NAHOM torrent

ETTV Recommended Cam
Emma 2020 720p HDCAM-C1NEM4 torrent
Sonic the Hedgehog.2020.READNFO.HDCAM.x264-ETRG torrent
Brahms The Boy 2 2020 HDCAM x264 -ETRG torrent
The Call of the Wild 2020 HDCAM NO ADS x264-ETRG torrent

ETTV Recommended Foreign
Suck Me Shakespeer 2 (2015) 720p BluRay x264 Eng Subs [Dual Audio] [Hindi DD 2.0 - German 2.0] Exclusive By -=!Dr.STAR!=- torrent
Shylock (2020)[Malayalam 720p HD AVC DD5.1 - x264 - 1.3GB - ESubs] torrent
Hitman Agent Jun 2020 720p Korean HDRip x264 Ganool torrent
Allegiance of Powers (2016) 720p WEBRip x264 Eng Subs [Dual Audio] [Hindi DD 2.0 - English 5.1] Exclusive By -=!Dr.STAR!=- torrent


Download Torrent "Bala 2019 Hindi 720p 10bit HS WEBRip x265 HEVC AAC ESub - MoviePirate - Tel..."

IMDB Details
Description:

It tells the story of a man who is balding prematurely and how he copes up with the situation.

Genre:

Comedy

Download Torrent (Magnet)
Download Torrent (File)
Seeds: 724
Leechers: 363
Completed: 2,017 
Last Checked: 17-01-2020 08:34:16


Loading...
Details
Title:Bala 2019 Hindi 720p 10bit HS WEBRip x265 HEVC AAC ESub - MoviePirate - Tel...
Description:



****************************
_____ _ _ 
|_ _|___ | || | _ _ 
| | / _ \| || || | | |
| || __/| || || |_| |
|_| \___||_||_| \__, |
|___/ 
****************************
Team Telly Proudly Presents
****************************
------------------
|Media Info|
------------------
General
Unique ID                                : 243142300840912737824569049477876460338 (0xB6EB80F89F42BC023EBD250AB8F2AB32)
Complete name                            : Bala 2019 Hindi 720p 10bit HS WEBRip x265 HEVC AAC ESub - MoviePirate - Telly.mkv
Format                                   : Matroska
Format version                           : Version 4
File size                                : 975 MiB
Duration                                 : 2 h 13 min
Overall bit rate                         : 1 025 kb/s
Movie name                               : MoviePirate.Site | Bala 2019 Hindi 720p 10bit HS WEBRip x265 HEVC AAC ESub - MoviePirate - Telly
Encoded date                             : UTC 2020-01-17 07:19:04
Writing application                      : mkvmerge v42.0.0 ('Overtime') 64-bit
Writing library                          : libebml v1.3.10 + libmatroska v1.5.2
Video
ID                                       : 1
Format                                   : HEVC
Format/Info                              : High Efficiency Video Coding
Format profile                           : Main [email protected]@Main
Codec ID                                 : V_MPEGH/ISO/HEVC
Duration                                 : 2 h 13 min
Bit rate                                 : 895 kb/s
Width                                    : 1 280 pixels
Height                                   : 536 pixels
Display aspect ratio                     : 2.40:1
Frame rate mode                          : Constant
Frame rate                               : 24.000 FPS
Color space                              : YUV
Chroma subsampling                       : 4:2:0
Bit depth                                : 10 bits
Bits/(Pixel*Frame)                       : 0.054
Stream size                              : 851 MiB (87%)
Title                                    : MoviePirate.Site
Writing library                          : x265 3.2+9-971180b100f8:[Windows][GCC 9.2.0][64 bit] 10bit
Encoding settings                        : cpuid=1111039 / frame-threads=5 / numa-pools=32 / wpp / no-pmode / no-pme / no-psnr / no-ssim / log-level=2 / input-csp=1 / input-res=1280x536 / interlace=0 / total-frames=191544 / level-idc=0 / high-tier=1 / uhd-bd=0 / ref=2 / no-allow-non-conformance / no-repeat-headers / annexb / no-aud / no-hrd / info / hash=0 / no-temporal-layers / open-gop / min-keyint=24 / keyint=250 / gop-lookahead=0 / bframes=4 / b-adapt=0 / b-pyramid / bframe-bias=0 / rc-lookahead=15 / lookahead-slices=0 / scenecut=40 / radl=0 / no-splice / no-intra-refresh / ctu=64 / min-cu-size=8 / no-rect / no-amp / max-tu-size=32 / tu-inter-depth=1 / tu-intra-depth=1 / limit-tu=0 / rdoq-level=0 / dynamic-rd=0.00 / no-ssim-rd / signhide / no-tskip / nr-intra=0 / nr-inter=0 / no-constrained-intra / strong-intra-smoothing / max-merge=2 / limit-refs=3 / no-limit-modes / me=1 / subme=2 / merange=57 / temporal-mvp / no-frame-dup / no-hme / weightp / no-weightb / no-analyze-src-pics / deblock=0:0 / sao / no-sao-non-deblock / rd=2 / selective-sao=4 / early-skip / rskip / fast-intra / no-tskip-fast / no-cu-lossless / no-b-intra / no-splitrd-skip / rdpenalty=0 / psy-rd=2.00 / psy-rdoq=0.00 / no-rd-refine / no-lossless / cbqpoffs=0 / crqpoffs=0 / rc=abr / bitrate=921 / qcomp=0.60 / qpstep=4 / stats-write=0 / stats-read=0 / ipratio=1.40 / pbratio=1.30 / aq-mode=2 / aq-strength=1.00 / cutree / zone-count=0 / no-strict-cbr / qg-size=32 / no-rc-grain / qpmax=69 / qpmin=0 / no-const-vbv / sar=0 / overscan=0 / videoformat=5 / range=0 / colorprim=2 / transfer=2 / colormatrix=2 / chromaloc=0 / display-window=0 / cll=0,0 / min-luma=0 / max-luma=1023 / log2-max-poc-lsb=8 / vui-timing-info / vui-hrd-info / slices=1 / no-opt-qp-pps / no-opt-ref-list-length-pps / no-multi-pass-opt-rps / scenecut-bias=0.05 / no-opt-cu-delta-qp / no-aq-motion / no-hdr / no-hdr-opt / no-dhdr10-opt / no-idr-recovery-sei / analysis-reuse-level=5 / scale-factor=0 / refine-intra=0 / refine-inter=0 / refine-mv=1 / refine-ctu-distortion=0 / no-limit-sao / ctu-info=0 / no-lowpass-dct / refine-analysis-type=0 / copy-pic=1 / max-ausize-factor=1.0 / no-dynamic-refine / no-single-sei / no-hevc-aq / no-svt / no-field / qp-adaptation-range=1.00
Default                                  : Yes
Forced                                   : No
Audio
ID                                       : 2
Format                                   : AAC LC SBR
Format/Info                              : Advanced Audio Codec Low Complexity with Spectral Band Replication
Commercial name                          : HE-AAC
Format settings                          : Explicit
Codec ID                                 : A_AAC-2
Duration                                 : 2 h 13 min
Bit rate                                 : 128 kb/s
Channel(s)                               : 2 channels
Channel layout                           : L R
Sampling rate                            : 48.0 kHz
Frame rate                               : 23.438 FPS (2048 SPF)
Compression mode                         : Lossy
Stream size                              : 122 MiB (12%)
Title                                    : MoviePirate.Site
Language                                 : Hindi
Default                                  : No
Forced                                   : No
Text
ID                                       : 3
Format                                   : UTF-8
Codec ID                                 : S_TEXT/UTF8
Codec ID/Info                            : UTF-8 Plain Text
Duration                                 : 2 h 10 min
Bit rate                                 : 69 b/s
Count of elements                        : 2289
Stream size                              : 66.9 KiB (0%)
Title                                    : MoviePirate.Site
Language                                 : English
Default                                  : Yes
Forced                                   : No
****************************
Telly.cc
Team Telly Official Site
****************************
[size=29]www.MoviePirate.Site[/size]
Enjoy Exclusives Content only on Telly.cc






Category:Movies > Bollywood
Lang:Hindi  Hindi
Total Size:975 MB
Info Hash:12765ff05c33c70429c47520fb0a4f46e5dc34a5
Added By:uploader6969
Date Added:17-01-2020 08:34:14

  

Files

File List: 
 File Size
Bala 2019 Hindi 720p 10bit HS WEBRip x265 HEVC AAC ESub - MoviePirate - Telly.mkv975 MB



Loading...
Comments

There are currently no comments. Be the first one to write something !