big bang theory español WWE underwater 2020 Tommy S01E02 supernatural Legacies Hindi blue bloods s10e14 greys anatomy S16E13 rq.mp4 Greys Anatomy knives out 2019 Sonic the Hedgehog 2020 21 Bridges 2019 joker 2019 brooklyn nine nine 0 strike back The Good Doctor s03e14 Bad Boys for Life 2020 fantasy island 2020 young sheldon S03E15 Harley Quinn Frozen II 2019 Star Trek Picard S01E03 Birds of Prey (and the Fantabulous Emancipation of One Harley Quinn) 2020 picard Harley Quinn s01e12 star wars the rise of skywalker 2019 joker Deputy s01e07 Midway 2019 The Gentlemen 2020 Young Sheldon The OUTSIDER  parasite Dabangg 3 terminator dark fate 2019 xxx Knives Out blue bloods Legends of Tomorrow 1917 2019 Charlies Angels 2019 ford v ferrari 2019 frozen 2 star trek picard evo yts outlander Gold Rush S10E18 MacGyver S04E02 ethd Legacies S02E13 ettv Brooklyn Nine Nine S07E03 lincoln rhyme hunt for the bone collector s01e05 etrg ddr Jumanji gold rush Vikings etmovies narcos jumanji the next level 2019 parasite 2019 Little Women 2019 jojo rabbit 2019 Dolittle 2020 Jumanji The Next Level Star Trek Picard S01E04 
Warning! Use a V.P.N When Downloading Torrents!
Your IP Address is 3.234.245.125. Location is United States
Your Internet Provider is tracking your torrent activity! Hide your IP ADDRESS with a V.P.N!
We strongly recommend using ExpressV.P.N to anonymize your torrenting. 30 Day Money Back Guarantee!
Try it Now!
ETTV Recommended TV Shows
Blue.Bloods.S10E14.HDTV.x264-SVA[ettv] torrent
Homeland.S08E02.WEBTV.H264-XLF[ettv] torrent
Ancient.Aliens.S15E04.WEB.h264-TRUMP[ettv] torrent
UFC Fight Night 167 1080p WEB-DL H264 Fight-BB torrent

ETTV Recommended SD
Olympic.Dreams.2019.HDRip.XviD.AC3-EVO torrent
Spy.Intervention.2020.HDRip.XViD.AC3-ETRG torrent
Mr.Jones.2019.BDRip.XviD.AC3-EVO torrent
Brown.Paper.Bag.2019.HDRip.XviD.AC3-EVO torrent

ETTV Recommended HD
Camp.Cold.Brook.2019.1080p.WEB-DL.H264.AC3-EVO[EtHD] torrent
Come.As.You.Are.2019.1080p.WEB-DL.H264.AC3-EVO[EtHD] torrent
Frozen.II.2019.REPACK.1080p.BluRay.x264.DTS-HD.MA7.1-HDChina[EtHD] torrent
Mr.Jones.2019.1080p.Bluray.DTS-HD.MA.5.1.X264-EVO[EtHD] torrent

ETTV Recommended UHD
Star.Wars.Episode.VII.The.Force.Awakens.2015.4K.HDR.2160p.WEBDL Ita Eng x265-NAHOM torrent
To.All.the.Boys.P.S.I.Still.Love.You.2020.2160p.NF.WEBRip.DDP5.1.x264-AJP69 torrent
Knives.Out.2019.2160p.UHD.BluRay.x265-TERMiNAL torrent
Frozen.II.2019.2160p.UHD.BluRay.x265-TERMiNAL torrent

ETTV Recommended Cam
Fantasy Island 2020 HDCAM x264-ETRG torrent
The Photograph 2020 720p HDCAM-C1NEM4 torrent
Emma 2020 720p HDCAM-C1NEM4 torrent
Sonic the Hedgehog.2020.READNFO.HDCAM.x264-ETRG torrent

ETTV Recommended Foreign
Panipat - The Great Betrayal.2019.540p.NF.WEB-DL.DD+5.1.x264-Telly torrent
Air.Strike.1080p.AMZN.WEB-DL.HIN-Multi.DD+5.1.x264-Telly torrent
Apostle of Dracula (2012) 720p WEBRip x264 [Dual Audio] [Hindi 2.0 - English 2.0] Exclusive By -=!Dr.STAR!=- torrent
Dabangg.3.2019.720p.AMZN.WEB-DL.x264.AAC-ETRG torrent


Download Torrent "Dear Comrade 2019 Hindi 720p WEBRip AAC x264 - MoviePirate - Telly.mkv"

IMDB Details
Description:

A hot-blooded student union leader falls for a state-level cricketer but his anger management issues and violent streak threatens to derail their love story.

Genre:

Action, Drama, Romance

Download Torrent (Magnet)
Download Torrent (File)
Seeds: 559
Leechers: 480
Completed: 1,519 
Last Checked: 19-01-2020 12:22:25


Loading...
Details
Title:Dear Comrade 2019 Hindi 720p WEBRip AAC x264 - MoviePirate - Telly.mkv
Description:



****************************
_____ _ _ 
|_ _|___ | || | _ _ 
| | / _ \| || || | | |
| || __/| || || |_| |
|_| \___||_||_| \__, |
|___/ 
****************************
Team Telly Proudly Presents
****************************
------------------
|Media Info|
------------------
General
Unique ID                                : 314839196109009532206962160679336365020 (0xECDBD2D3DDA14FE8E34ED8D60CA94BDC)
Complete name                            : Dear Comrade 2019 Hindi 720p WEBRip AAC x264 - MoviePirate - Telly.mkv
Format                                   : Matroska
Format version                           : Version 4
File size                                : 1.18 GiB
Duration                                 : 2 h 30 min
Overall bit rate                         : 1 120 kb/s
Movie name                               : MoviePirate.Site | Dear Comrade 2019 Hindi 1080p WEB-DL AAC x264 - MoviePirate - Telly
Encoded date                             : UTC 2020-01-19 12:10:00
Writing application                      : mkvmerge v39.0.0 ('In The Waiting Line') 64-bit
Writing library                          : libebml v1.3.9 + libmatroska v1.5.2
Video
ID                                       : 1
Format                                   : AVC
Format/Info                              : Advanced Video Codec
Format profile                           : [email protected]
Format settings                          : CABAC / 4 Ref Frames
Format settings, CABAC                   : Yes
Format settings, Reference frames        : 4 frames
Codec ID                                 : V_MPEG4/ISO/AVC
Duration                                 : 2 h 30 min
Bit rate                                 : 1 000 kb/s
Width                                    : 1 280 pixels
Height                                   : 544 pixels
Display aspect ratio                     : 2.35:1
Frame rate mode                          : Constant
Frame rate                               : 25.000 FPS
Color space                              : YUV
Chroma subsampling                       : 4:2:0
Bit depth                                : 8 bits
Scan type                                : Progressive
Bits/(Pixel*Frame)                       : 0.057
Stream size                              : 1.04 GiB (88%)
Writing library                          : x264 core 157 r2969 d4099dd
Encoding settings                        : cabac=1 / ref=2 / deblock=1:0:0 / analyse=0x3:0x113 / me=hex / subme=6 / psy=1 / psy_rd=1.00:0.00 / mixed_ref=1 / me_range=16 / chroma_me=1 / trellis=1 / 8x8dct=1 / cqm=0 / deadzone=21,11 / fast_pskip=1 / chroma_qp_offset=-2 / threads=17 / lookahead_threads=2 / sliced_threads=0 / nr=0 / decimate=1 / interlaced=0 / bluray_compat=0 / constrained_intra=0 / bframes=3 / b_pyramid=2 / b_adapt=1 / b_bias=0 / direct=1 / weightb=1 / open_gop=0 / weightp=1 / keyint=250 / keyint_min=25 / scenecut=40 / intra_refresh=0 / rc_lookahead=30 / rc=abr / mbtree=1 / bitrate=1000 / ratetol=1.0 / qcomp=0.60 / qpmin=0 / qpmax=69 / qpstep=4 / ip_ratio=1.40 / aq=1:1.00
Default                                  : Yes
Forced                                   : No
Color range                              : Limited
Color primaries                          : BT.709
Transfer characteristics                 : BT.709
Matrix coefficients                      : BT.709
Audio
ID                                       : 2
Format                                   : AAC LC SBR
Format/Info                              : Advanced Audio Codec Low Complexity with Spectral Band Replication
Commercial name                          : HE-AAC
Format settings                          : Explicit
Codec ID                                 : A_AAC-2
Duration                                 : 2 h 30 min
Bit rate                                 : 128 kb/s
Channel(s)                               : 2 channels
Channel layout                           : L R
Sampling rate                            : 44.1 kHz
Frame rate                               : 21.533 FPS (2048 SPF)
Compression mode                         : Lossy
Delay relative to video                  : 12 ms
Stream size                              : 138 MiB (11%)
Title                                    : MoviePirate.Site
Language                                 : Hindi
Default                                  : No
Forced                                   : No
****************************
Telly.cc
Team Telly Official Site
****************************
[size=29]www.MoviePirate.Site[/size]
Enjoy Exclusives Content only on Telly.cc


Category:Movies > Dubs/Dual Audio
Lang:Hindi  Hindi
Total Size:1.18 GB
Info Hash:2233b2413939558c181083cc8e516a7de9115921
Added By:uploader6969
Date Added:19-01-2020 12:22:22

  

Files

File List: 
 File Size
Dear Comrade 2019 Hindi 720p WEBRip AAC x264 - MoviePirate - Telly.mkv1.18 GB



Loading...
Comments

There are currently no comments. Be the first one to write something !