big bang theory español WWE underwater 2020 Tommy S01E02 supernatural Legacies Hindi blue bloods s10e14 greys anatomy S16E13 rq.mp4 Greys Anatomy knives out 2019 Sonic the Hedgehog 2020 21 Bridges 2019 joker 2019 brooklyn nine nine 0 strike back The Good Doctor s03e14 Bad Boys for Life 2020 fantasy island 2020 young sheldon S03E15 Harley Quinn Frozen II 2019 Star Trek Picard S01E03 Birds of Prey (and the Fantabulous Emancipation of One Harley Quinn) 2020 picard Harley Quinn s01e12 star wars the rise of skywalker 2019 joker Deputy s01e07 Midway 2019 The Gentlemen 2020 Young Sheldon The OUTSIDER  parasite Dabangg 3 terminator dark fate 2019 xxx Knives Out blue bloods Legends of Tomorrow 1917 2019 Charlies Angels 2019 ford v ferrari 2019 frozen 2 star trek picard evo yts outlander Gold Rush S10E18 MacGyver S04E02 ethd Legacies S02E13 ettv Brooklyn Nine Nine S07E03 lincoln rhyme hunt for the bone collector s01e05 etrg ddr Jumanji gold rush Vikings etmovies narcos jumanji the next level 2019 parasite 2019 Little Women 2019 jojo rabbit 2019 Dolittle 2020 Jumanji The Next Level Star Trek Picard S01E04 
Warning! Use a V.P.N When Downloading Torrents!
Your IP Address is 3.234.245.125. Location is United States
Your Internet Provider is tracking your torrent activity! Hide your IP ADDRESS with a V.P.N!
We strongly recommend using ExpressV.P.N to anonymize your torrenting. 30 Day Money Back Guarantee!
Try it Now!
ETTV Recommended TV Shows
Blue.Bloods.S10E14.HDTV.x264-SVA[ettv] torrent
Homeland.S08E02.WEBTV.H264-XLF[ettv] torrent
Ancient.Aliens.S15E04.WEB.h264-TRUMP[ettv] torrent
UFC Fight Night 167 1080p WEB-DL H264 Fight-BB torrent

ETTV Recommended SD
Olympic.Dreams.2019.HDRip.XviD.AC3-EVO torrent
Spy.Intervention.2020.HDRip.XViD.AC3-ETRG torrent
Mr.Jones.2019.BDRip.XviD.AC3-EVO torrent
Brown.Paper.Bag.2019.HDRip.XviD.AC3-EVO torrent

ETTV Recommended HD
Camp.Cold.Brook.2019.1080p.WEB-DL.H264.AC3-EVO[EtHD] torrent
Come.As.You.Are.2019.1080p.WEB-DL.H264.AC3-EVO[EtHD] torrent
Frozen.II.2019.REPACK.1080p.BluRay.x264.DTS-HD.MA7.1-HDChina[EtHD] torrent
Mr.Jones.2019.1080p.Bluray.DTS-HD.MA.5.1.X264-EVO[EtHD] torrent

ETTV Recommended UHD
Star.Wars.Episode.VII.The.Force.Awakens.2015.4K.HDR.2160p.WEBDL Ita Eng x265-NAHOM torrent
To.All.the.Boys.P.S.I.Still.Love.You.2020.2160p.NF.WEBRip.DDP5.1.x264-AJP69 torrent
Knives.Out.2019.2160p.UHD.BluRay.x265-TERMiNAL torrent
Frozen.II.2019.2160p.UHD.BluRay.x265-TERMiNAL torrent

ETTV Recommended Cam
Fantasy Island 2020 HDCAM x264-ETRG torrent
The Photograph 2020 720p HDCAM-C1NEM4 torrent
Emma 2020 720p HDCAM-C1NEM4 torrent
Sonic the Hedgehog.2020.READNFO.HDCAM.x264-ETRG torrent

ETTV Recommended Foreign
Panipat - The Great Betrayal.2019.540p.NF.WEB-DL.DD+5.1.x264-Telly torrent
Air.Strike.1080p.AMZN.WEB-DL.HIN-Multi.DD+5.1.x264-Telly torrent
Apostle of Dracula (2012) 720p WEBRip x264 [Dual Audio] [Hindi 2.0 - English 2.0] Exclusive By -=!Dr.STAR!=- torrent
Dabangg.3.2019.720p.AMZN.WEB-DL.x264.AAC-ETRG torrent


Download Torrent "Black and Blue (2019).720p.H264.ita.eng.Ac3-5.1.sub.ita.eng-MIRCrew"

IMDB Details
Description:

A rookie New Orleans police officer is forced to balance her identity as a black woman after she witnesses two corrupt cops committing murder.

Genre:

Action, Crime, Drama, Thriller

Download Torrent (Magnet)
Download Torrent (File)
Seeds: 374
Leechers: 197
Completed: 1,153 
Last Checked: 19-01-2020 16:14:25


Loading...
Details
Title:Black and Blue (2019).720p.H264.ita.eng.Ac3-5.1.sub.ita.eng-MIRCrew
Description:
Black and Blue (2019).720p.H264.ita.eng.Ac3-5.1.sub.ita.eng-MIRCrew


NO FOUND ONLY ORIGINAL RELEASE

My release is always in double track audio italian and Original audio
for select it use VLC or dvd player home
not use wmp

Black and Blue (2019)

Quality MIRCrew on HD 720p da 2,1 gb







 

Lingua originale    inglese
Paese di produzione    Stati Uniti d'America
Anno    2019
Durata    108 min
Rapporto    2,39:1
Genere    azione, drammatico, thriller, poliziesco
Regia    Deon Taylor
Sceneggiatura    Peter A. Dowling



    Naomie Harris: Alicia West
    Tyrese Gibson: Milo "Mouse" Jackson
    Frank Grillo: Terry Malone
    Mike Colter: Darius Terrow
    Reid Scott: Kevin Jennings
    Beau Knapp: Smitty
    Nafessa Williams: Missy
    James Moses Black: Diacono Brown
    Frankie Smith: Tez
    Carsyn Taylor: Jamal
    Michael Papajohn: Capo Sergente



La veterana dell'esercito americano Alicia West ritorna nella sua città natale a New Orleans dove viene reclutata nel dipartimento di polizia della città. Alicia viene ricordata dal suo nuovo partner Kevin Jennings sulle differenze di residenza nella comunità in cui è cresciuta e nel dipartimento di polizia.



A rookie New Orleans police officer is forced to balance her identity as a black woman after she witnesses two corrupt cops committing murder.

   









General

Complete name                            : Black and Blue (2019).720p.H264.ita.eng.sub.ita.eng-MIRCrew\Black and Blue (2019).720p.H264.ita.eng.sub.ita.eng-MIRCrew.mkv
Format                                   : Matroska
Format version                           : Version 2
File size                                : 2.13 GiB
Duration                                 : 1h 47mn
Overall bit rate                         : 2 821 Kbps
Movie name                               : robbyrs
Encoded date                             : UTC 2020-01-19T14:07:56Z
Writing application                      : HandBrake 0.10.5 2016021100
Writing library                          : Lavf55.12.0

Video
ID                                       : 1
Format                                   : AVC
Format/Info                              : Advanced Video Codec
Format profile                           : [email protected]
Format settings, CABAC                   : Yes
Format settings, ReFrames                : 4 frames
Codec ID                                 : V_MPEG4/ISO/AVC
Duration                                 : 1h 47mn
Bit rate                                 : 2 000 Kbps
Width                                    : 1 280 pixels
Height                                   : 528 pixels
Display aspect ratio                     : 2.40:1
Frame rate mode                          : Variable / Variable
Frame rate                               : 23.976 fps
Color space                              : YUV
Chroma subsampling                       : 4:2:0
Bit depth                                : 8 bits
Scan type                                : Progressive
Bits/(Pixel*Frame)                       : 0.123
Stream size                              : 1.46 GiB (69%)
Writing library                          : x264 core 142 r2479 dd79a61
Encoding settings                        : cabac=1 / ref=1 / deblock=1:0:0 / analyse=0x1:0x111 / me=hex / subme=2 / psy=1 / psy_rd=1.00:0.00 / mixed_ref=0 / me_range=16 / chroma_me=1 / trellis=0 / 8x8dct=0 / cqm=0 / deadzone=21,11 / fast_pskip=1 / chroma_qp_offset=0 / threads=9 / lookahead_threads=3 / sliced_threads=0 / nr=0 / decimate=1 / interlaced=0 / bluray_compat=0 / constrained_intra=0 / bframes=3 / b_pyramid=2 / b_adapt=1 / b_bias=0 / direct=1 / weightb=1 / open_gop=0 / weightp=1 / keyint=240 / keyint_min=24 / scenecut=40 / intra_refresh=0 / rc_lookahead=10 / rc=abr / mbtree=1 / bitrate=2000 / ratetol=1.0 / qcomp=0.60 / qpmin=0 / qpmax=69 / qpstep=4 / vbv_maxrate=50000 / vbv_bufsize=62500 / nal_hrd=none / filler=0 / ip_ratio=1.40 / aq=1:1.00
Default                                  : Yes
Forced                                   : No
Color primaries                          : BT.709-5, BT.1361, IEC 61966-2-4, SMPTE RP177
Transfer characteristics                 : BT.709-5, BT.1361
Matrix coefficients                      : BT.709-5, BT.1361, IEC 61966-2-4 709, SMPTE RP177

Audio #1
ID                                       : 2
Format                                   : AC-3
Format/Info                              : Audio Coding 3
Mode extension                           : CM (complete main)
Codec ID                                 : A_AC3
Duration                                 : 1h 47mn
Bit rate mode                            : Constant
Bit rate                                 : 448 Kbps
Channel(s)                               : 6 channels
Channel positions                        : Front: L C R, Side: L R, LFE
Sampling rate                            : 48.0 KHz
Bit depth                                : 16 bits
Compression mode                         : Lossy
Delay relative to video                  : 1mn 5s
Stream size                              : 346 MiB (16%)
Title                                    : Ita Ac3 5.1
Language                                 : Italian
Default                                  : Yes
Forced                                   : No

Audio #2
ID                                       : 3
Format                                   : AC-3
Format/Info                              : Audio Coding 3
Mode extension                           : CM (complete main)
Codec ID                                 : A_AC3
Duration                                 : 1h 47mn
Bit rate mode                            : Constant
Bit rate                                 : 384 Kbps
Channel(s)                               : 6 channels
Channel positions                        : Front: L C R, Side: L R, LFE
Sampling rate                            : 48.0 KHz
Bit depth                                : 16 bits
Compression mode                         : Lossy
Delay relative to video                  : 1mn 5s
Stream size                              : 297 MiB (14%)
Title                                    : Eng Ac3 5.1
Language                                 : English
Default                                  : No
Forced                                   : No

Menu
00:00:00.000                             : :Chapter 1
00:05:26.294                             : :Chapter 2
00:10:36.938                             : :Chapter 3
00:16:38.674                             : :Chapter 4
00:23:33.088                             : :Chapter 5
00:30:25.542                             : :Chapter 6
00:39:08.940                             : :Chapter 7
00:47:23.809                             : :Chapter 8
00:55:04.269                             : :Chapter 9
01:01:54.554                             : :Chapter 10
01:09:42.605                             : :Chapter 11
01:17:41.833                             : :Chapter 12
01:21:47.162                             : :Chapter 13
01:24:41.461                             : :Chapter 14
01:30:23.803                             : :Chapter 15
01:40:21.025                             : :Chapter 16





Category:Movies > HD 720p
Lang:English  English
Total Size:2.13 GB
Info Hash:b9ab9ab8ffdb6f8310ec2bd3b5c229e08a2df14c
Added By:robbyrs
Date Added:19-01-2020 16:14:22

  

Files

File List: 
 File Size
Black and Blue (2019).720p.H264.ita.eng.sub.ita.eng-MIRCrew.eng.srt95.32 kB
Black and Blue (2019).720p.H264.ita.eng.sub.ita.eng-MIRCrew.ita.srt85.40 kB
Black and Blue (2019).720p.H264.ita.eng.sub.ita.eng-MIRCrew.mkv2.13 GB
Black and Blue (2019).720p.H264.ita.eng.sub.ita.eng-MIRCrew.srt495.00 B



Loading...
Comments

There are currently no comments. Be the first one to write something !