I AM NOT OKAY WITH this The outsider s01e08 Knives Out 2019 Doctor Who yts star wars the rise of skywalker 2019 DCs Legends of Tomorrow S05E06 ncis Legends of Tomorrow Homeland S08E03 greys anatomy Better Call Saul Birds of Prey (and the Fantabulous Emancipation of One Harley Quinn) 2020 For Life S01E03 STAR WARS parasite Wwe Sonic the Hedgehog 2020 Batwoman The Flash bad boys for life 2020 frozen ii 2019 ford v ferrari 2019 New Amsterdam better call saul s05e02 The Outsider Supergirl This Is Us S04E15 New Amsterdam S02E15 The walking dead project blue book s02e06 rq.mp4 flash the curse of oak island s07e14 better call saul s05e01 parasite 2019 the good doctor s03e16 Terminator Dark Fate 2019 The Curse of Oak Island Jumanji The Gentlemen 2019 ethd evo Hunters avenue 5 Hunters S01E01 Manifest picard hindi xxx jumanji the next level 2019 charlies angels 2019 superman red son This IS Us Joker 2019 The Walking Dead S10E09 etmovies The Flash S06E13 The Call Of Cthulhu The good doctor Homeland ita fantasy island 2020 The Bachelor S24E09 ettv 1917 2019 Project Blue Book The Call of the Wild 2020 etrg ddr superman red son 2020 star trek picard s01e05 
Warning! Use a V.P.N When Downloading Torrents!
Your IP Address is 3.233.217.91. Location is United States
Your Internet Provider is tracking your torrent activity! Hide your IP ADDRESS with a V.P.N!
We strongly recommend using ExpressV.P.N to anonymize your torrenting. 30 Day Money Back Guarantee!
Try it Now!
ETTV Recommended TV Shows
SEAL.Team.S03E11.WEB.x264-XLF[ettv] torrent
Chicago.Med.S05E15.WEB.x264-XLF[ettv] torrent
Chicago.Fire.S08E15.WEB.x264-XLF[ettv] torrent
Chicago.PD.S07E15.WEB.h264-TBS[ettv] torrent

ETTV Recommended SD
Philophobia.Or.The.Fear.Of.Falling.In.Love.2019.BRRip.XviD.AC3-EVO torrent
Jumanji.The.Next.Level.2019.HDRip.XviD.AC3-EVO torrent
Bombshell.2019.BDRip.XviD.AC3-EVO torrent
Spies.In.Disguise.2019.BRRip.XViD.AC3-ETRG torrent

ETTV Recommended HD
Ride.Like.A.Girl.2019.1080p.REPACK.BluRay.x264-PFa[EtHD] torrent
Inherit.The.Viper.2019.1080p.Bluray.DTS-HD.MA.5.1.X264-EVO[EtHD] torrent
Uncut Gems.2019.1080p.Bluray.DTS-HD.MA.5.1.X264-EVO[EtHD] torrent
Wonder.2017.BRRip.1080p.HEVC.HDR.Eng.Fre.Spa.DD5.1.ETRG torrent

ETTV Recommended UHD
Frozen II 2019.MULTi.UHD.BluRay.2160p.HDR.TrueHD.Atmos.7.1.HEVC.DDR torrent
Queen and Slim.2019.UHD.BluRay.2160p.HDR.Atmos.7.1.HEVC-DDR torrent
Midway 2019.MULTi.UHD.BluRay.2160p.HDR.TrueHD.Atmos.7.1.HEVC.DDR torrent
Wonder.2017.BDRip.2160p.UHD.HDR.Eng.Fre.Spa.TrueHD.DD5.1.ETRG torrent

ETTV Recommended Cam
Emma 2020 720p HDCAM-C1NEM4 torrent
Sonic the Hedgehog.2020.READNFO.HDCAM.x264-ETRG torrent
Brahms The Boy 2 2020 HDCAM x264 -ETRG torrent
The Call of the Wild 2020 HDCAM NO ADS x264-ETRG torrent

ETTV Recommended Foreign
Days of Power (2018) 720p BluRay x264 Eng Subs [Dual Audio] [Hindi DD 2.0 - English 2.0] Exclusive By -=!Dr.STAR!=- torrent
Ibiza Undead (2016) 720p WEBRip x264 [Dual Audio] [Hindi DD 2.0 - English 2.0] Exclusive By -=!Dr.STAR!=- torrent
Pokémon - Mewtwo Strikes Back - Evolution.2019.1080p.NF.WEB-DL.Multi.DD+5.1.x264-Telly torrent
Parasite 2019.MULTi.UHD.Bluray.2160p.HDR.Atmos.7.1.HEVC.(Kor Fr)-DDR torrent


Download Torrent "Doctor.Sleep.THEATRICAL.2019.UHD.BDRip.2160p.HDR.seleZen"

IMDB Details
Description:

N/A

Genre:

N/A

Download Torrent (Magnet)
Download Torrent (File)
Seeds: 68
Leechers: 37
Completed: 903 
Last Checked: 24-01-2020 16:41:11


Details
Title:Doctor.Sleep.THEATRICAL.2019.UHD.BDRip.2160p.HDR.seleZen
Description:


Doctor Sleep (2019)



General
Unique ID                                : 255277913408444939508115681075860079548 (0xC00CBCDDAB483DEF0DCD2D00553003BC)
Complete name                            : /media/34d3/will1869/private/rtorrent/data/Doctor.Sleep.THEATRICAL.2019.UHD.BDRip.2160p.HDR.seleZen.mkv
Format                                   : Matroska
Format version                           : Version 4 / Version 2
File size                                : 12.7 GiB
Duration                                 : 2 h 32 min
Overall bit rate mode                    : Variable
Overall bit rate                         : 12.0 Mb/s
Movie name                               : Doctor Sleep 2019 from селезень
Encoded date                             : UTC 2020-01-23 23:25:52
Writing application                      : mkvmerge v40.0.0 ('Old Town Road + Pony') 64-bit
Writing library                          : libebml v1.3.9 + libmatroska v1.5.2

Video
ID                                       : 1
Format                                   : HEVC
Format/Info                              : High Efficiency Video Coding
Format profile                           : Main [email protected]@High
Codec ID                                 : V_MPEGH/ISO/HEVC
Duration                                 : 2 h 32 min
Bit rate                                 : 6 918 kb/s
Width                                    : 3 840 pixels
Height                                   : 2 076 pixels
Display aspect ratio                     : 1.85:1
Frame rate mode                          : Constant
Frame rate                               : 23.976 (24000/1001) FPS
Color space                              : YUV
Chroma subsampling                       : 4:2:0 (Type 2)
Bit depth                                : 10 bits
Bits/(Pixel*Frame)                       : 0.036
Stream size                              : 7.35 GiB (58%)
Title                                    : AAAUHD
Writing library                          : x265 3.2+29-c5ff72937e9c:[Windows][GCC 9.2.1][64 bit] 10bit
Encoding settings                        : cpuid=1111039 / frame-threads=6 / numa-pools=32 / wpp / no-pmode / no-pme / no-psnr / no-ssim / log-level=2 / input-csp=1 / input-res=3840x2076 / interlace=0 / total-frames=218696 / level-idc=51 / high-tier=1 / uhd-bd=0 / ref=4 / no-allow-non-conformance / repeat-headers / annexb / aud / hrd / info / hash=0 / no-temporal-layers / no-open-gop / min-keyint=1 / keyint=24 / gop-lookahead=0 / bframes=4 / b-adapt=2 / b-pyramid / bframe-bias=0 / rc-lookahead=25 / lookahead-slices=4 / scenecut=40 / hist-scenecut=0 / radl=0 / no-splice / no-intra-refresh / ctu=64 / min-cu-size=8 / rect / no-amp / max-tu-size=32 / tu-inter-depth=1 / tu-intra-depth=1 / limit-tu=0 / rdoq-level=2 / dynamic-rd=0.00 / no-ssim-rd / signhide / no-tskip / nr-intra=0 / nr-inter=0 / no-constrained-intra / no-strong-intra-smoothing / max-merge=3 / limit-refs=3 / limit-modes / me=3 / subme=3 / merange=57 / temporal-mvp / no-frame-dup / no-hme / weightp / no-weightb / no-analyze-src-pics / deblock=-3:-3 / no-sao / no-sao-non-deblock / rd=4 / selective-sao=0 / no-early-skip / rskip / no-fast-intra / no-tskip-fast / no-cu-lossless / no-b-intra / no-splitrd-skip / rdpenalty=0 / psy-rd=2.00 / psy-rdoq=1.00 / no-rd-refine / no-lossless / cbqpoffs=0 / crqpoffs=0 / rc=crf / crf=17.0 / qcomp=0.60 / qpstep=4 / stats-write=0 / stats-read=0 / vbv-maxrate=160000 / vbv-bufsize=160000 / vbv-init=0.9 / crf-max=0.0 / crf-min=0.0 / ipratio=1.40 / pbratio=1.30 / aq-mode=2 / aq-strength=1.00 / cutree / zone-count=0 / no-strict-cbr / qg-size=32 / no-rc-grain / qpmax=69 / qpmin=0 / no-const-vbv / sar=1 / overscan=0 / videoformat=5 / range=0 / colorprim=9 / transfer=16 / colormatrix=9 / chromaloc=1 / chromaloc-top=2 / chromaloc-bottom=2 / display-window=0 / master-display=G(13250,34500)B(7500,3000)R(34000,16000)WP(15635,16450)L(10000000,1) / cll=745,47 / min-luma=0 / max-luma=1023 / log2-max-poc-lsb=8 / vui-timing-info / vui-hrd-info / slices=1 / no-opt-qp-pps / no-opt-ref-list-length-pps / no-multi-pass-opt-rps / scenecut-bias=0.05 / hist-threshold=0.01 / no-opt-cu-delta-qp / no-aq-motion / hdr10 / hdr10-opt / no-dhdr10-opt / no-idr-recovery-sei / analysis-reuse-level=5 / scale-factor=0 / refine-intra=0 / refine-inter=0 / refine-mv=1 / refine-ctu-distortion=0 / no-limit-sao / ctu-info=0 / no-lowpass-dct / refine-analysis-type=0 / copy-pic=1 / max-ausize-factor=1.0 / no-dynamic-refine / no-single-sei / no-hevc-aq / no-svt / no-field / qp-adaptation-range=1.00 / no-scenecut-aware-qp
Language                                 : English
Default                                  : Yes
Forced                                   : No
Color range                              : Limited
Color primaries                          : BT.2020
Transfer characteristics                 : SMPTE ST 2084
Matrix coefficients                      : BT.2020 non-constant
Mastering display color primaries        : R: x=0.680000 y=0.320000, G: x=0.265000 y=0.690000, B: x=0.150000 y=0.060000, White point: x=0.312700 y=0.329000
Mastering display luminance              : min: 0.0001 cd/m2, max: 1000.0000 cd/m2
Maximum Content Light Level              : 745 cd/m2
Maximum Frame-Average Light Level        : 47 cd/m2

Audio #1
ID                                       : 2
Format                                   : AC-3
Format/Info                              : Audio Coding 3
Mode extension                           : CM (complete main)
Format settings, Endianness              : Big
Codec ID                                 : A_AC3
Duration                                 : 2 h 32 min
Bit rate mode                            : Constant
Bit rate                                 : 384 kb/s
Channel(s)                               : 6 channels
Channel positions                        : Front: L C R, Side: L R, LFE
Sampling rate                            : 48.0 kHz
Frame rate                               : 31.250 FPS (1536 spf)
Bit depth                                : 16 bits
Compression mode                         : Lossy
Stream size                              : 417 MiB (3%)
Title                                    : iTunes
Language                                 : Russian
Default                                  : Yes
Forced                                   : Yes

Audio #2
ID                                       : 3
Format                                   : AC-3
Format/Info                              : Audio Coding 3
Mode extension                           : CM (complete main)
Format settings, Endianness              : Big
Codec ID                                 : A_AC3
Duration                                 : 2 h 32 min
Bit rate mode                            : Constant
Bit rate                                 : 192 kb/s
Channel(s)                               : 2 channels
Channel positions                        : Front: L R
Sampling rate                            : 48.0 kHz
Frame rate                               : 31.250 FPS (1536 spf)
Bit depth                                : 16 bits
Compression mode                         : Lossy
Stream size                              : 209 MiB (2%)
Title                                    : iTunes
Language                                 : Ukrainian
Default                                  : No
Forced                                   : No

Audio #3
ID                                       : 4
Format                                   : Atmos / TrueHD
Codec ID                                 : A_TRUEHD
Duration                                 : 2 h 32 min
Bit rate mode                            : Variable
Bit rate                                 : 3 939 kb/s
Maximum bit rate                         : 7 347 kb/s
Channel(s)                               : Object Based / 8 channels
Channel positions                        : Object Based / Front: L C R, Side: L R, Back: L R, LFE
Sampling rate                            :  / 48.0 kHz
Frame rate                               : 1 200.000 FPS (40 spf)
Compression mode                         : Lossless
Stream size                              : 4.18 GiB (33%)
Title                                    : Original
Language                                 : English
Default                                  : No
Forced                                   : No

Audio #4
ID                                       : 5
Format                                   : AC-3
Format/Info                              : Audio Coding 3
Mode extension                           : CM (complete main)
Format settings, Endianness              : Big
Codec ID                                 : A_AC3
Duration                                 : 2 h 32 min
Bit rate mode                            : Constant
Bit rate                                 : 448 kb/s
Channel(s)                               : 6 channels
Channel positions                        : Front: L C R, Side: L R, LFE
Sampling rate                            : 48.0 kHz
Frame rate                               : 31.250 FPS (1536 spf)
Bit depth                                : 16 bits
Compression mode                         : Lossy
Stream size                              : 487 MiB (4%)
Language                                 : English
Default                                  : No
Forced                                   : No

Text #1
ID                                       : 6
Format                                   : UTF-8
Codec ID                                 : S_TEXT/UTF8
Codec ID/Info                            : UTF-8 Plain Text
Duration                                 : 2 h 14 min
Bit rate                                 : 3 b/s
Count of elements                        : 42
Stream size                              : 3.85 KiB (0%)
Title                                    : Forced
Language                                 : Russian
Default                                  : Yes
Forced                                   : Yes

Text #2
ID                                       : 7
Format                                   : UTF-8
Codec ID                                 : S_TEXT/UTF8
Codec ID/Info                            : UTF-8 Plain Text
Duration                                 : 2 h 25 min
Bit rate                                 : 60 b/s
Count of elements                        : 1656
Stream size                              : 64.7 KiB (0%)
Title                                    : Full
Language                                 : Russian
Default                                  : No
Forced                                   : No

Text #3
ID                                       : 8
Format                                   : UTF-8
Codec ID                                 : S_TEXT/UTF8
Codec ID/Info                            : UTF-8 Plain Text
Duration                                 : 2 h 14 min
Bit rate                                 : 1 b/s
Count of elements                        : 43
Stream size                              : 1.74 KiB (0%)
Title                                    : Forced
Language                                 : Ukrainian
Default                                  : No
Forced                                   : No

Text #4
ID                                       : 9
Format                                   : UTF-8
Codec ID                                 : S_TEXT/UTF8
Codec ID/Info                            : UTF-8 Plain Text
Duration                                 : 2 h 25 min
Bit rate                                 : 37 b/s
Count of elements                        : 1693
Stream size                              : 39.7 KiB (0%)
Title                                    : Full
Language                                 : English
Default                                  : No
Forced                                   : No

Text #5
ID                                       : 10
Format                                   : UTF-8
Codec ID                                 : S_TEXT/UTF8
Codec ID/Info                            : UTF-8 Plain Text
Duration                                 : 2 h 25 min
Bit rate                                 : 42 b/s
Count of elements                        : 1943
Stream size                              : 45.4 KiB (0%)
Title                                    : SDH
Language                                 : English
Default                                  : No
Forced                                   : No

Source - Russain uhd
Encoded by - Selezen

https://www.imdb.com/title/tt5606664



Stars: Rebecca Ferguson, Ewan McGregor, Carel Struycken



Years following the events of "The Shining," a now-adult Dan Torrance meets a young girl with similar powers as he tries to protect her from a cult known as The True Knot who prey on children with powers to remain immortal.




Will add screen shots when home
Category:Movies > UltraHD/4K
Lang:English  English
Total Size:12.69 GB
Info Hash:1ba4e2ed5bdd5fb501ff3c01c15cb642f2484594
Added By:Will1869
Date Added:24-01-2020 16:41:08

  

Files

File List: 
 File Size
Doctor.Sleep.THEATRICAL.2019.UHD.BDRip.2160p.HDR.seleZen.mkv12.69 GB



Loading...
Comments

There are currently no comments. Be the first one to write something !