game of thrones s08e05 pet sematary 2019 game of thrones s08e03 little 2019 the fix s01e10 avengers endgame 2019 pokemon detective pikachu 2019 2.0 (2018) what men want 2019 chernobyl s01e03 hellboy 2019 tushy 18.12 1080p.mp4-ktr long shot 2019 evo avengers endgame game of thrones s08e06 brightburn 2019 aladdin 2019 fighting with my family 2019 spider man into the spider verse 2018 the intruder 2019 the code s01e07 john wick 3 captain marvel a madea family funeral 2019 ddr supergirl s04e22 Ettv ethd shazam game of thrones s08e01 game of thrones s08e04 chernobyl ncis los angeles s10e24 arrow español john wick chapter 3 – parabellum 2019 WWE dcs legends of tomorrow s04e16 Supergirl cold pursuit 2019 glass 2019 the enemy within s01e13 The Enemy Within The Code good girls s02e12 us 2019 john wick john wick 2014 Legends Of Tomorrow legends of tomorrow s04e16 chernobyl s01e01 hindi the curse of la llorona 2019 big bang theory killing eve etmovies the hustle 2019 john wick chapter 2 2017 the 100 s06e04 The 100 The Big Bang Theory s12e23 The Fix tushyraw 1080p.mp4-ktr aquaman 2018 etrg shazam 2019 billions game of thrones captain marvel 2019 men in black international 2019 killing eve s02e07 yts 
Warning! Use a VPN When Downloading Torrents!
Your IP Address is 54.226.4.91. Location is United States
Your Internet Provider is tracking your torrent activity! Hide your IP ADDRESS with a VPN!
We strongly recommend using ExpressVPN to anonymize your torrenting. 30 Day Money Back Guarantee!
Try it Now!
ETTV Recommended TV Shows
NCIS.S16E24.HDTV.x264-SVA[ettv] torrent
Deadliest.Catch.S15E07.WEB.x264-TBS[ettv] torrent
The.Last.O.G.S02E08.WEBRip.x264-TBS[ettv] torrent
Blood.and.Treasure.S01E01-E02.HDTV.x264-SVA[ettv] torrent
The.100.S06E04.WEB.h264-TBS[ettv] torrent
Fosse.Verdon.S01E07.WEBRip.x264-TBS[ettv] torrent

ETTV Recommended SD
Roads.Trees.And.Honey.Bees.2019.HDRip.XviD.AC3-EVO torrent
Drunk.Parents.2019.BRRip.XviD.AC3-EVO torrent
Trading.Point.2019.BRRip.XviD.AC3-EVO torrent
Us.2019.HC.HDRip.XViD-ETRG torrent

ETTV Recommended HD
Trading.Paint.2019.1080p.BluRay.x264-CiNEFiLE[EtHD] torrent
John.Wick.2014.1080p.BluRay.MHD.X264.DD.5.1-DDR torrent
Runaway Bride 1999.1080p.BluRay.MHD.X264.DD.5.1-DDR torrent
The.Book.of.Eli.2010.1080p.BluRay.MHD.X264.DD.5.1-DDR torrent

ETTV Recommended UHD
Crank 2006.UHD.BluRay.2160p.HDR.HEVC.Atmos.7.1-DDR torrent
Aquaman 2018 1080p BDrip  x265 7.1 TrueHD Atmos D0ct0rLew[SEV] torrent
Field of Dreams 1989.Multi.UHD.2160p.Blu-ray.HDR.HEVC.DTS-HDMA.5.1-DDR torrent
Godzilla 1998.MULTi.UHD.2160p.HDR.HEVC.Atmos.7.1-DDR torrent

ETTV Recommended Cam
Brightburn 2019 HDCAM x264 AC3-ETRG torrent
The Hustle 2019 HDCAM x264 AC3 ETRG torrent
Pokemon  Detective Pikachu 2019 HDCAM x264 AC3-ETRG torrent
John Wick 3 2019 HDCAM x264 -ETRG torrent

ETTV Recommended Foreign
Yennamo Yedho (2014) 720p UNCUT HDRip x264 Eng Subs [Dual Audio] [Hindi DD 2.0 - Telugu 2.0] Exclusive By -=!Dr.STAR!=- torrent
Furie.2019.1080p.NF.Vietnamese.WEB-DL.H264-ETRG[EtHD] torrent
Mughal-E-Azam.1960.1080p.WEB-DL.AVC.AAC.ESub.DDR torrent
The Hate U Give - Il coraggio della verità (2019).1080p.H264.italian.english.Ac3-5.1.sub.ita-MIRCrew torrent


Download Torrent "Justice League (2017) 720p BluRay x264 Dual Audio [Hindi DD5.1 - English DD..."

IMDB Details
Description:

Fueled by his restored faith in humanity and inspired by Superman's selfless act, Bruce Wayne enlists the help of his newfound ally, Diana Prince, to face an even greater enemy.

Genre:

Action, Adventure, Fantasy

Download Torrent (Magnet)
Download Torrent (File)
Seeds: 96
Leechers: 79
Completed: 188 
Last Checked: 13-03-2018 13:26:58


Loading...
Details
Title:Justice League (2017) 720p BluRay x264 Dual Audio [Hindi DD5.1 - English DD...
Description:


Justice League (2017) 720p BluRay x264 Dual Audio [Hindi DD5.1 - English DD5.1] - Msubs ~ Ranvijay

Thanks To Rohit For Hindi Audio

Format : Matroska
Format version : Version 4 / Version 2
File size : 2.02 GiB
Duration : 2 h 0 min
Overall bit rate : 2 408 kb/s
Movie name : Justice League (2017) 720p BluRay x264 Dual Audio [Hindi DD5.1 - English DD5.1] - Msubs ~ Ranvijay

Video
ID : 1
Format : AVC
Format/Info : Advanced Video Codec
Format profile : [email protected]
Format settings : CABAC / 4 Ref Frames
Format settings, CABAC : Yes
Format settings, RefFrames : 4 frames
Codec ID : V_MPEG4/ISO/AVC
Duration : 2 h 0 min
Bit rate : 1 500 kb/s
Width : 1 280 pixels
Height : 720 pixels
Display aspect ratio : 16:9
Frame rate mode : Constant
Frame rate : 23.976 (24000/1001) FPS
Original frame rate : 23.976 (23976/1000) FPS
Color space : YUV
Chroma subsampling : 4:2:0
Bit depth : 8 bits
Scan type : Progressive
Bits/(Pixel*Frame) : 0.068
Stream size : 1.26 GiB (62%)
Title : ~Ranvijay~
Default : Yes
Forced : No

Audio #1
ID : 2
Format : AC-3
Format/Info : Audio Coding 3
Codec ID : A_AC3
Duration : 2 h 0 min
Bit rate mode : Constant
Bit rate : 448 kb/s
Channel(s) : 6 channels
Channel positions : Front: L C R, Side: L R, LFE
Sampling rate : 48.0 kHz
Frame rate : 31.250 FPS (1536 SPF)
Bit depth : 16 bits
Compression mode : Lossy
Stream size : 385 MiB (19%)
Title : ~Ranvijay~
Language : Hindi
Service kind : Complete Main
Default : Yes
Forced : No

Audio #2
ID : 3
Format : AC-3
Format/Info : Audio Coding 3
Codec ID : A_AC3
Duration : 2 h 0 min
Bit rate mode : Constant
Bit rate : 448 kb/s
Channel(s) : 6 channels
Channel positions : Front: L C R, Side: L R, LFE
Sampling rate : 48.0 kHz
Frame rate : 31.250 FPS (1536 SPF)
Bit depth : 16 bits
Compression mode : Lossy
Stream size : 385 MiB (19%)
Title : ~Ranvijay~
Language : English
Service kind : Complete Main
Default : No
Forced : No

Text #1
ID : 4
Format : UTF-8
Codec ID : S_TEXT/UTF8
Codec ID/Info : UTF-8 Plain Text
Duration : 1 h 58 min
Bit rate : 42 b/s
Count of elements : 1233
Stream size : 36.5 KiB (0%)
Title : ~Ranvijay~
Language : English
Default : No
Forced : No

Text #2
ID : 5
Format : UTF-8
Codec ID : S_TEXT/UTF8
Codec ID/Info : UTF-8 Plain Text
Duration : 1 h 58 min
Bit rate : 48 b/s
Count of elements : 1490
Stream size : 42.0 KiB (0%)
Title : ~Ranvijay~
Language : English
Default : No
Forced : No

Text #3
ID : 6
Format : UTF-8
Codec ID : S_TEXT/UTF8
Codec ID/Info : UTF-8 Plain Text
Duration : 1 h 58 min
Bit rate : 68 b/s
Count of elements : 1507
Stream size : 59.4 KiB (0%)
Title : ~Ranvijay~
Language : English
Default : No
Forced : No

Text #4
ID : 7
Format : PGS
Muxing mode : zlib
Codec ID : S_HDMV/PGS
Codec ID/Info : Picture based subtitle format used on BDs/HD-DVDs
Duration : 1 h 59 min
Bit rate : 30.8 kb/s
Count of elements : 3014
Stream size : 26.2 MiB (1%)
Title : ~Ranvijay~
Language : English
Default : No
Forced : No

Text #5
ID : 8
Format : PGS
Muxing mode : zlib
Codec ID : S_HDMV/PGS
Codec ID/Info : Picture based subtitle format used on BDs/HD-DVDs
Duration : 1 h 57 min
Bit rate : 719 b/s
Count of elements : 62
Stream size : 621 KiB (0%)
Title : ~Ranvijay~
Language : Hindi
Default : Yes
Forced : No

Menu
00:00:00.000 : en:Chapter 1
00:10:56.155 : en:Chapter 2
00:19:16.488 : en:Chapter 3
00:30:41.673 : en:Chapter 4
00:40:19.667 : en:Chapter 5
00:49:56.535 : en:Chapter 6
01:01:26.891 : en:Chapter 7
01:09:41.552 : en:Chapter 8
01:19:18.587 : en:Chapter 9
01:30:34.512 : en:Chapter 10
01:40:33.569 : en:Chapter 11
01:48:43.058 : en:Chapter 12

















Category:Movies > Dubs/Dual Audio
Lang:Hindi  Hindi
Total Size:2.02 GB
Info Hash:146295b71eafeba3d01964f1fd6d89d14bb6a249
Added By:TheFighter
Date Added:13-03-2018 13:26:53

  

Files

File List: 
 File Size
Justice League (2017) 720p BluRay x264 Dual Audio [Hindi DD5.1 - English DD5.1] - Msubs ~ Ranvijay.mkv2.02 GB



Comments

There are currently no comments. Be the first one to write something !