Bad Boys for Life 2020 harley quinn Gold Rush S10E19 wilder fury ITA vikings star wars evo Hunters greys anatomy S16E14 21 bridges 2019 boxing sonic the hedgehog 2020 WWE ddr Xxx star trek picard s01e05 brooklyn nine nine jumanji homeland Deputy s01e08 joker 2019 Jojo Rabbit 2019 yts knives out 2019 The Sinner S03E03 Legends of Tomorrow homeland s08e03 Greys Anatomy picard parasite fantasy island 2020 the call of the wild 2020 Charlies Angels 2019 tyson fury jumanji the next level 2019 Star Wars The Rise of Skywalker 2019 ufc fight night 168 etrg hindi rq.mp4 bellator etmovies 0 frozen ii 2019 parasite 2019 outlander S05E02 Doctor Who The Outsider S01E08 Outlander ufc strike back Lincoln Rhyme Hunt for the Bone Collector S01E06 the outsider walking dead  terminator dark fate 2019 Gold rush Midway 2019 dolittle 2020 1917 2019 the walking dead ethd fury birds of prey (and the fantabulous emancipation of one harley quinn) 2020 star trek picard ettv ford v ferrari 2019 Underwater 2020 the gentlemen 2019 The Walking Dead s10e09 Hunters S01E01 
Warning! Use a V.P.N When Downloading Torrents!
Your IP Address is 3.234.245.121. Location is United States
Your Internet Provider is tracking your torrent activity! Hide your IP ADDRESS with a V.P.N!
We strongly recommend using ExpressV.P.N to anonymize your torrenting. 30 Day Money Back Guarantee!
Try it Now!
ETTV Recommended TV Shows
Doctor.Who.2005.S12E09.HDTV.x264-RiVER[ettv] torrent
Endeavour.S07E03.HDTV.x264-RiVER[ettv] torrent
The.Simpsons.S31E13.WEB.x264-XLF[ettv] torrent
Bobs.Burgers.S10E13.WEB.x264-XLF[ettv] torrent

ETTV Recommended SD
Queen of Spades.Through the Looking Glass.2019.BDRip.XviD.AC3-EVO torrent
Goldie.2019.HDRip.XViD.AC3-ETRG torrent
I.Am.Fear.2020.BDRip.XviD.AC3-EVO torrent
Jezebel 2020.HDRip.XviD.AC3-EVO torrent

ETTV Recommended HD
Animal.Among.Us.2019.1080p.BluRay.x264-UNVEiL[EtHD] torrent
Dolls.2019.1080p.BluRay.x264-JustWatch[EtHD] torrent
Hit.and.Run.2012.1080p.BluRay.x264-SPARKS[EtHD] torrent
Standing.Up.Falling.Down.2019.1080p.AMZN.WEB-DL.DDP5.1.H.264-NTG[EtHD] torrent

ETTV Recommended UHD
A.Bugs.Life.1998.iNTERNAL.HDR.2160p.WEB.H265-WATCHER torrent
Up.2009.iNTERNAL.HDR.2160p.WEB.H265-WATCHER torrent
Beauty.And.The.Beast.1991.iNTERNAL.HDR.2160p.WEB.H265-WATCHER torrent
Angel.Heart.1987.4K.HDR.2160p.BDRip Ita Eng x265-NAHOM torrent

ETTV Recommended Cam
Emma 2020 720p HDCAM-C1NEM4 torrent
Sonic the Hedgehog.2020.READNFO.HDCAM.x264-ETRG torrent
Brahms The Boy 2 2020 HDCAM x264 -ETRG torrent
The Call of the Wild 2020 HDCAM NO ADS x264-ETRG torrent

ETTV Recommended Foreign
Bhoot (2020) Hindi 720p PreDVD x264 AAC 1.2GB CineVood Exclusive torrent
Parasite.2019.2160p.UHD.BluRay.X265-IAMABLE torrent
Beyond White Space (2018) 720p BluRay x264 Eng Subs [Dual Audio] [Hindi DD 2.0 - English 2.0] Exclusive By -=!Dr.STAR!=- torrent
iSmart Shankar (2019) + EXTRAS 720p UNCUT HDRip x264 Eng Subs [Dual Audio] [Hindi DD 2.0 - Telugu 2.0] Exclusive By -=!Dr.STAR!=- torrent


Download Torrent "When They See Us [2019] 1080p NF WebRip x265 E-AC-3 Atmos DDP 5.1 Kira [SEV..."

IMDB Details
Description:

Five teens from Harlem become trapped in a nightmare when they're falsely accused of a brutal attack in Central Park. Based on the true story.

Genre:

Biography, Crime, Drama, History

Download Torrent (Magnet)
Download Torrent (File)
Seeds: 29
Leechers: 57
Completed: 296 
Last Checked: 14-02-2020 17:02:59


Details
Title:When They See Us [2019] 1080p NF WebRip x265 E-AC-3 Atmos DDP 5.1 Kira [SEV...
Description:



Screenshot's



Media Information

General
Unique ID                   : 200752090395624589860773863941215147458 (0x9707723C1271883A599C9C5BFAACD5C2)
Complete name               : When They See Us - Episode 01 - Part One 1080p NF WebRip x265 E-AC-3 Atmos DDP 5.1 Kira [SEV].mkv
Format                      : Matroska
Format version              : Version 4
File size                   : 2.97 GiB
Duration                    : 1 h 4 min
Overall bit rate            : 6 650 kb/s
Movie name                  : When They See Us : Episode 01 : Part One
Encoded date                : UTC 2020-02-11 02:45:03
Writing application         : mkvmerge v43.0.0 ('The Quartermaster') 64-bit
Writing library             : libebml v1.3.10 + libmatroska v1.5.2

Video
ID                          : 1
Format                      : HEVC
Format/Info                 : High Efficiency Video Coding
Format profile              : Main [email protected]@Main
Codec ID                    : V_MPEGH/ISO/HEVC
Duration                    : 1 h 4 min
Bit rate                    : 5 881 kb/s
Width                       : 1 920 pixels
Height                      : 960 pixels
Display aspect ratio        : 2.000
Frame rate mode             : Constant
Frame rate                  : 23.976 (24000/1001) FPS
Color space                 : YUV
Chroma subsampling          : 4:2:0
Bit depth                   : 10 bits
Bits/(Pixel*Frame)          : 0.133
Stream size                 : 2.63 GiB (88%)
Title                       : When They See Us : Episode 01 : Part One
Writing library             : x265 3.2+38-fdbd4e4a2aff:[Windows][MSVC 1924][64 bit] 10bit
Encoding settings           : cpuid=1111039 / frame-threads=2 / numa-pools=4 / wpp / no-pmode / no-pme / no-psnr / no-ssim / log-level=2 / input-csp=1 / input-res=1920x960 / interlace=0 / total-frames=92121 / level-idc=0 / high-tier=1 / uhd-bd=0 / ref=4 / no-allow-non-conformance / no-repeat-headers / annexb / no-aud / no-hrd / info / hash=0 / no-temporal-layers / open-gop / min-keyint=23 / keyint=250 / gop-lookahead=0 / bframes=8 / b-adapt=2 / b-pyramid / bframe-bias=0 / rc-lookahead=100 / lookahead-slices=4 / scenecut=40 / hist-scenecut=0 / radl=0 / no-splice / no-intra-refresh / ctu=64 / min-cu-size=8 / no-rect / no-amp / max-tu-size=32 / tu-inter-depth=1 / tu-intra-depth=1 / limit-tu=0 / rdoq-level=2 / dynamic-rd=0.00 / no-ssim-rd / signhide / no-tskip / nr-intra=0 / nr-inter=0 / no-constrained-intra / no-strong-intra-smoothing / max-merge=3 / limit-refs=3 / limit-modes / me=3 / subme=7 / merange=92 / temporal-mvp / no-frame-dup / no-hme / weightp / no-weightb / no-analyze-src-pics / deblock=0:0 / sao / no-sao-non-deblock / rd=4 / selective-sao=4 / no-early-skip / rskip / no-fast-intra / no-tskip-fast / no-cu-lossless / no-b-intra / no-splitrd-skip / rdpenalty=0 / psy-rd=1.40 / psy-rdoq=1.00 / no-rd-refine / no-lossless / cbqpoffs=0 / crqpoffs=0 / rc=crf / crf=17.8 / qcomp=0.60 / qpstep=4 / stats-write=0 / stats-read=0 / ipratio=1.40 / pbratio=1.30 / aq-mode=3 / aq-strength=1.10 / cutree / zone-count=0 / no-strict-cbr / qg-size=32 / no-rc-grain / qpmax=69 / qpmin=0 / no-const-vbv / sar=0 / overscan=0 / videoformat=5 / range=0 / colorprim=2 / transfer=2 / colormatrix=2 / chromaloc=0 / display-window=0 / cll=0,0 / min-luma=0 / max-luma=1023 / log2-max-poc-lsb=8 / vui-timing-info / vui-hrd-info / slices=1 / no-opt-qp-pps / no-opt-ref-list-length-pps / no-multi-pass-opt-rps / scenecut-bias=0.05 / hist-threshold=0.01 / no-opt-cu-delta-qp / no-aq-motion / no-hdr10 / no-hdr10-opt / no-dhdr10-opt / no-idr-recovery-sei / analysis-reuse-level=0 / analysis-save-reuse-level=0 / analysis-load-reuse-level=0 / scale-factor=0 / refine-intra=0 / refine-inter=0 / refine-mv=1 / refine-ctu-distortion=0 / no-limit-sao / ctu-info=0 / no-lowpass-dct / refine-analysis-type=0 / copy-pic=1 / max-ausize-factor=1.0 / no-dynamic-refine / no-single-sei / no-hevc-aq / no-svt / no-field / qp-adaptation-range=1.00 / no-scenecut-aware-qpconformance-window-offsets / right=0 / bottom=0
Language                    : English
Default                     : Yes
Forced                      : No

Audio
ID                          : 2
Format                      : E-AC-3 JOC
Format/Info                 : Enhanced AC-3 with Joint Object Coding
Commercial name             : Dolby Digital Plus with Dolby Atmos
Codec ID                    : A_EAC3
Duration                    : 1 h 4 min
Bit rate mode               : Constant
Bit rate                    : 768 kb/s
Channel(s)                  : 6 channels
Channel layout              : L R C LFE Ls Rs
Sampling rate               : 48.0 kHz
Frame rate                  : 31.250 FPS (1536 SPF)
Compression mode            : Lossy
Delay relative to video     : 1 s 0 ms
Stream size                 : 352 MiB (12%)
Title                       : English E-AC-3 Atmos DDP_5.1 @ 768 Kbps
Language                    : English
Service kind                : Complete Main
Default                     : Yes
Forced                      : No
Complexity index            : 16
Number of dynamic objects   : 15
Bed channel count           : 1 channel
Bed channel configuration   : LFE

Text #1
ID                          : 3
Format                      : UTF-8
Codec ID                    : S_TEXT/UTF8
Codec ID/Info               : UTF-8 Plain Text
Duration                    : 1 h 1 min
Bit rate                    : 83 b/s
Count of elements           : 1077
Stream size                 : 37.7 KiB (0%)
Title                       : English SDH SRT
Language                    : English
Default                     : Yes
Forced                      : No

Text #2
ID                          : 4
Format                      : UTF-8
Codec ID                    : S_TEXT/UTF8
Codec ID/Info               : UTF-8 Plain Text
Duration                    : 1 h 1 min
Bit rate                    : 76 b/s
Count of elements           : 1017
Stream size                 : 34.2 KiB (0%)
Title                       : English SRT
Language                    : English
Default                     : No
Forced                      : No


Source Information

When.They.See.Us.S01.1080p.NF.WEB.DDP5.1.Atmos.x264-NTb (26.57 GB)


We have no issue with individuals posting or re-uploading our torrents on a platform we aren't on. However, if this is something you'd like to do, please do so in a 'as-is' format. We ask that you do not create a new torrent, include all descriptions you see above including the SEV logo, tags, notes and screenshots. If you'd like to become a permanent poster on a website we don't post to, feel free to get in contact with a Sublime Encoded Video member.

We are recruiting/training new members for SEV & seedbox providers as well as people to help out with subtitles.
As you already know, we deliver quality, so you know the standard.
If you're interested, feel free to contact any of the team members.


Category:TV > HEVC/x265
Lang:English  English
Total Size:13.53 GB
Info Hash:d351178f9b760a9fd48e32e4449eefb6e44bc5fa
Added By:D0ct0rLew
Date Added:14-02-2020 17:02:50

Files

File List: 
 File Size
Contact SEV.txt1.03 kB
When They See Us - Episode 01 - Part One 1080p NF WebRip x265 E-AC-3 Atmos DDP 5.1 Kira [SEV].mkv2.97 GB
When They See Us - Episode 02 - Part Two 1080p NF WebRip x265 E-AC-3 Atmos DDP 5.1 Kira [SEV].mkv3.15 GB
When They See Us - Episode 03 - Part Three 1080p NF WebRip x265 E-AC-3 Atmos DDP 5.1 Kira [SEV].mkv2.96 GB
When They See Us - Episode 04 - Part Four 1080p NF WebRip x265 E-AC-3 Atmos DDP 5.1 Kira [SEV].mkv4.44 GB



Loading...
Comments

There are currently no comments. Be the first one to write something !